873 lines
25 KiB
Plaintext
873 lines
25 KiB
Plaintext
//TJADB Project
|
|
TITLE:Boukenshatachi
|
|
TITLEJA:冒険者たち
|
|
SUBTITLE:--Do As Infinity/Rabinas
|
|
SUBTITLEJA:Do As Infinity
|
|
BPM:175.93
|
|
WAVE:Boukenshatachi.ogg
|
|
OFFSET:-2.897
|
|
DEMOSTART:57.126
|
|
|
|
COURSE:Oni
|
|
LEVEL:8
|
|
BALLOON:12,12
|
|
SCOREINIT:370
|
|
SCOREDIFF:100
|
|
|
|
|
|
#START
|
|
|
|
|
|
100000000000000000100000000000000000200000000000,
|
|
#BPMCHANGE 177.46
|
|
#SCROLL 0.99
|
|
100000000000000000100000000000000000200000000000,
|
|
#BPMCHANGE 177.61
|
|
100000000000200000100000000000200000200000000000,
|
|
#BPMCHANGE 175.37
|
|
#SCROLL 1
|
|
100000000000200000100000000000200000200000000000,
|
|
#BPMCHANGE 175.56
|
|
100000000000200000100000000000200000200000000000,
|
|
#BPMCHANGE 179
|
|
#SCROLL 0.98
|
|
100000200200200000100000200200200000100000000000,
|
|
#BPMCHANGE 177
|
|
#SCROLL 0.99
|
|
100000000000200000100000200200100000000000200000,
|
|
000000200000100000000000200200100000200000000000,
|
|
100000000000200000100000200200100000000000200000,
|
|
000000200000100000000000200200100000200000000000,
|
|
100000000000200000100000200200100000000000200000,
|
|
000000200000100000000000200200100000200000000000,
|
|
100000000000200000100000200000100000000000100000,
|
|
100000100000100000100100200200200200100200200200,
|
|
100000100100100000200000200200100000100000000000,
|
|
100000100100100000200000200200200000100000200000,
|
|
100000100100100000200000200200100000100000000000,
|
|
100000100100100000200000200200200000100000200000,
|
|
100000100100100000200000200200100000100000000000,
|
|
100000100100100000200000200200200000100000200000,
|
|
100000100100100000200000200200100000100000000000,
|
|
300000000000300000000000200200100000100000000000,
|
|
200000200200100000200000200200100000200000200000,
|
|
200000200200100000200000200200100000100000000000,
|
|
200000200200100000200000200200100000200000200000,
|
|
200000200200100000200000200200100000100000000000,
|
|
200000200200100000200000200200100000200000200000,
|
|
200000200200100000200000200200100000100000000000,
|
|
200000100100100000200000100100100000200000100000,
|
|
#BPMCHANGE 177.85
|
|
#SCROLL 0.98
|
|
400000000000400000000000300000300000000000300000,
|
|
000000100100200000100000200000100000000000100000,
|
|
#BPMCHANGE 175.32
|
|
#SCROLL 1
|
|
000000100100200000100000200000200000000000100000,
|
|
#BPMCHANGE 178.45
|
|
#SCROLL 0.98
|
|
000000100100200000100000200000100000000000200000,
|
|
#BPMCHANGE 177.06
|
|
#SCROLL 0.99
|
|
000000100100200000100000200000200000000000100000,
|
|
#BPMCHANGE 178.3
|
|
#SCROLL 0.98
|
|
000000100100200000100000200000100000000000200000,
|
|
#BPMCHANGE 176.49
|
|
#SCROLL 0.99
|
|
000000100100200000100000200000100000200000100000,
|
|
#BPMCHANGE 178.78
|
|
#SCROLL 0.98
|
|
000000100000200000100000200000000000200000100000,
|
|
#BPMCHANGE 176.4
|
|
#SCROLL 0.99
|
|
000000100000200000100000200000000000200000500000,
|
|
#BPMCHANGE 177.35
|
|
000000000000000000000000000000000008000000000000,
|
|
#BPMCHANGE 173.28
|
|
#SCROLL 1.01
|
|
300000000000000000000000000000100100000100100000,
|
|
|
|
#GOGOSTART
|
|
#BPMCHANGE 179.34
|
|
#SCROLL 0.98
|
|
100000100100200000100100100000100100200000100100,
|
|
#BPMCHANGE 177.44
|
|
#SCROLL 0.99
|
|
100000100100200000100100100000100100200000000000,
|
|
#BPMCHANGE 179.17
|
|
#SCROLL 0.98
|
|
100000100100200000100100100000100100200000100100,
|
|
#BPMCHANGE 174.26
|
|
#SCROLL 1
|
|
100000100100200000100100100000100100200000200000,
|
|
#BPMCHANGE 178.11
|
|
#SCROLL 0.98
|
|
100000100100200000100100100000100100200000100100,
|
|
#BPMCHANGE 176.21
|
|
#SCROLL 0.99
|
|
100000100100200000100100100000100100200000000000,
|
|
#BPMCHANGE 176.31
|
|
600000000000000000000008000000000000300000600000,
|
|
#BPMCHANGE 178.56
|
|
#SCROLL 0.98
|
|
000000000000000000000000000000000008000000000000,
|
|
#BPMCHANGE 173.77
|
|
#SCROLL 1.01
|
|
100000100100200000100100100000100100200000100100,
|
|
#BPMCHANGE 178.56
|
|
#SCROLL 0.98
|
|
100000100100200000100100200000100100200000100100,
|
|
#BPMCHANGE 178.21
|
|
100000100100200000100100100000100100200000100100,
|
|
#BPMCHANGE 176.12
|
|
#SCROLL 0.99
|
|
100000100100200000100100200000100100200000100100,
|
|
#BPMCHANGE 177.35
|
|
100000100100200000200200200000000000300000000000,
|
|
#BPMCHANGE 176.4
|
|
400000400000300000000000300000000000300000700000,
|
|
#BPMCHANGE 176.31
|
|
000000000000000000000000000000800000000000300000,
|
|
#BPMCHANGE 178.3
|
|
#SCROLL 0.98
|
|
000000200200100000000000200200100000000000200000,
|
|
#BPMCHANGE 178.88
|
|
100000200100200000100100100000200100200000100100,
|
|
#BPMCHANGE 175.93
|
|
#SCROLL 1
|
|
100000200100200000100100100000200100200000100100,
|
|
#BPMCHANGE 177.25
|
|
#SCROLL 0.99
|
|
100000200100200000100100100000200100200000100100,
|
|
#BPMCHANGE 177.54
|
|
100000200100200000100100100000200100200000000000,
|
|
#BPMCHANGE 177.92
|
|
#SCROLL 0.98
|
|
100000200100200000100100100000200100200000100100,
|
|
#BPMCHANGE 175
|
|
#SCROLL 1
|
|
100000200100200000100100100000200100200000000000,
|
|
#BPMCHANGE 177.25
|
|
#SCROLL 0.99
|
|
600000000000000000000008000000000000300000600000,
|
|
#BPMCHANGE 175.93
|
|
#SCROLL 1
|
|
000000000000000000000000000000000008000000000000,
|
|
#BPMCHANGE 176.78
|
|
#SCROLL 0.99
|
|
100000200100200000100100100000200100200000100100,
|
|
#BPMCHANGE 177.73
|
|
#SCROLL 0.98
|
|
100000200100200000100100200000200100200000100100,
|
|
#BPMCHANGE 176.31
|
|
#SCROLL 0.99
|
|
100000200100200000100100100000200100200000100100,
|
|
#BPMCHANGE 177.25
|
|
100000200100200000100100200000200100200000100100,
|
|
#BPMCHANGE 178.11
|
|
#SCROLL 0.98
|
|
100000100100200000200200200000000000300000000000,
|
|
#BPMCHANGE 174.04
|
|
#SCROLL 1.01
|
|
400000400000300000000000300000000000300000700000,
|
|
#BPMCHANGE 178.73
|
|
#SCROLL 0.98
|
|
000000000000000000000000000000800000000000300000,
|
|
#BPMCHANGE 178.3
|
|
000000200200100000000000200200100000100000200000,
|
|
|
|
#GOGOEND
|
|
#BPMCHANGE 174.45
|
|
#SCROLL 1
|
|
100000000000200000100000200200100000000000200000,
|
|
#BPMCHANGE 178.59
|
|
#SCROLL 0.98
|
|
000000200000100000000000200200100000200000000000,
|
|
#BPMCHANGE 176.54
|
|
#SCROLL 0.99
|
|
100000000000200000100000200200100000000000200000,
|
|
000000200000100000000000200200100000200000100000,
|
|
#BPMCHANGE 177.63
|
|
100000000000200000100000200200100000000000200000,
|
|
#BPMCHANGE 176.49
|
|
000000200000100000000000200200100000200000000000,
|
|
#BPMCHANGE 177.63
|
|
100000000000200000100000200200100000000000200000,
|
|
#BPMCHANGE 178.49
|
|
#SCROLL 0.98
|
|
100000100100100000100100200200200200100200200200,
|
|
#BPMCHANGE 175.84
|
|
#SCROLL 1
|
|
100000000100200000100000200200100000100000200000,
|
|
#BPMCHANGE 177.06
|
|
#SCROLL 0.99
|
|
100000200100200000100000200200100000200000000000,
|
|
#BPMCHANGE 176.87
|
|
100000000100200000100000200200100000100000200000,
|
|
#BPMCHANGE 177.16
|
|
100000000100200000100000200200100000200000000000,
|
|
#BPMCHANGE 177.25
|
|
100000000100200000100000200200100000100000200000,
|
|
#BPMCHANGE 176.02
|
|
100000200100200000100000200200100000200000000000,
|
|
#BPMCHANGE 177.25
|
|
100000000100200000100000200200100000200000100000,
|
|
#BPMCHANGE 178.4
|
|
#SCROLL 0.98
|
|
500000000000000000000000000000000008000000000000,
|
|
#BPMCHANGE 147
|
|
#SCROLL 1.19
|
|
300000000000000000300000000000000000000000000000,
|
|
|
|
|
|
#END
|
|
|
|
|
|
COURSE:Hard
|
|
LEVEL:5
|
|
BALLOON:10,16,12
|
|
SCOREINIT:570
|
|
SCOREDIFF:120
|
|
|
|
|
|
#START
|
|
|
|
|
|
100000000000000000100000000000000000200000000000,
|
|
#BPMCHANGE 177.46
|
|
#SCROLL 0.99
|
|
100000000000000000100000000000000000200000000000,
|
|
#BPMCHANGE 177.61
|
|
100000000000000000100000000000200000200000000000,
|
|
#BPMCHANGE 175.37
|
|
#SCROLL 1
|
|
100000000000000000100000000000200000200000000000,
|
|
#BPMCHANGE 175.56
|
|
100000000000000000100000000000200000200000000000,
|
|
#BPMCHANGE 179
|
|
#SCROLL 0.98
|
|
100000000000200000100000000000200000100000000000,
|
|
#BPMCHANGE 177
|
|
#SCROLL 0.99
|
|
100000000000200000100000200000100000000000200000,
|
|
000000200000100000000000200000100000200000000000,
|
|
100000000000200000100000200000100000000000200000,
|
|
000000200000100000000000200000100000200000000000,
|
|
100000000000200000100000200000100000000000200000,
|
|
000000200000100000000000200000100000200000000000,
|
|
300000000000000000300000000000000000000000000000,
|
|
7008,
|
|
100000000000100000100000000000100000100000000000,
|
|
000000000000100000100000200000000000100000100000,
|
|
100000000000100000100000000000100000200000000000,
|
|
000000000000200000100000200000100000200000000000,
|
|
100000000000100000100000000000100000200000000000,
|
|
000000000000100000100000200000000000100000000000,
|
|
100000000000100000100000000000100000200000000000,
|
|
300000000000300000000000000000000000000000000000,
|
|
200000000000200000200000000000200000100000000000,
|
|
000000000000100000200000200000000000100000000000,
|
|
200000000000200000200000000000200000100000000000,
|
|
000000000000100000200000200000000000100000000000,
|
|
200000000000200000200000000000200000100000000000,
|
|
000000000000100000200000200000000000100000000000,
|
|
200000000000200000200000000000200000100000000000,
|
|
#BPMCHANGE 177.85
|
|
#SCROLL 0.98
|
|
400000000000400000000000300000300000000000300000,
|
|
000000100000200000000000200000100000000000100000,
|
|
#BPMCHANGE 175.32
|
|
#SCROLL 1
|
|
000000100000200000000000200000100000000000100000,
|
|
#BPMCHANGE 178.45
|
|
#SCROLL 0.98
|
|
000000100000200000000000200000100000000000200000,
|
|
#BPMCHANGE 177.06
|
|
#SCROLL 0.99
|
|
000000100000200000000000200000200000000000100000,
|
|
#BPMCHANGE 178.3
|
|
#SCROLL 0.98
|
|
000000100000200000000000100000200000000000200000,
|
|
#BPMCHANGE 176.49
|
|
#SCROLL 0.99
|
|
000000100000200000000000200000000000200000100000,
|
|
#BPMCHANGE 178.78
|
|
#SCROLL 0.98
|
|
000000100000100000000000200000000000200000100000,
|
|
#BPMCHANGE 176.4
|
|
#SCROLL 0.99
|
|
000000100000100000000000200000000000200000500000,
|
|
#BPMCHANGE 177.35
|
|
000000000000000000000000000000000008000000000000,
|
|
#BPMCHANGE 173.28
|
|
#SCROLL 1.01
|
|
300000000000000000000000000000100100000100100000,
|
|
|
|
#GOGOSTART
|
|
#BPMCHANGE 179.34
|
|
#SCROLL 0.98
|
|
100000000000200000100000100000000000200000000000,
|
|
#BPMCHANGE 177.44
|
|
#SCROLL 0.99
|
|
200000000000100000100000100000100000100000000000,
|
|
#BPMCHANGE 179.17
|
|
#SCROLL 0.98
|
|
100000000000200000100000100000000000200000000000,
|
|
#BPMCHANGE 174.26
|
|
#SCROLL 1
|
|
200000000000100000100000100000100000100000000000,
|
|
#BPMCHANGE 178.11
|
|
#SCROLL 0.98
|
|
100000000000200000100000100000000000200000000000,
|
|
#BPMCHANGE 176.21
|
|
#SCROLL 0.99
|
|
200000000000100000200000200000100000200000000000,
|
|
#BPMCHANGE 176.31
|
|
600000000000000000000000000008000000000000600000,
|
|
#BPMCHANGE 178.56
|
|
#SCROLL 0.98
|
|
000000000000000000000000000000000008000000000000,
|
|
#BPMCHANGE 173.77
|
|
#SCROLL 1.01
|
|
100000000000100000200000200000000000100000000000,
|
|
#BPMCHANGE 178.56
|
|
#SCROLL 0.98
|
|
100000000000200000200000200000200000100000000000,
|
|
#BPMCHANGE 178.21
|
|
100000000000100000200000200000000000100000000000,
|
|
#BPMCHANGE 176.12
|
|
#SCROLL 0.99
|
|
100000000000200000200000200000200000100000000000,
|
|
#BPMCHANGE 177.35
|
|
100000000000100000200000000000000000300000000000,
|
|
#BPMCHANGE 176.4
|
|
300000300000000000000000400000000000400000700000,
|
|
#BPMCHANGE 176.31
|
|
,
|
|
#BPMCHANGE 178.3
|
|
#SCROLL 0.98
|
|
8,
|
|
#BPMCHANGE 178.88
|
|
100000000000200000100000100000000000200000000000,
|
|
#BPMCHANGE 175.93
|
|
#SCROLL 1
|
|
200000000000100000100000100000100000200000000000,
|
|
#BPMCHANGE 177.25
|
|
#SCROLL 0.99
|
|
100000000000200000100000100000000000200000000000,
|
|
#BPMCHANGE 177.54
|
|
200000000000100000100000100000100000200000000000,
|
|
#BPMCHANGE 177.92
|
|
#SCROLL 0.98
|
|
100000000000200000100000100000000000200000000000,
|
|
#BPMCHANGE 175
|
|
#SCROLL 1
|
|
200000000000100000200000200000100000200000000000,
|
|
#BPMCHANGE 177.25
|
|
#SCROLL 0.99
|
|
600000000000000000000000000008000000000000600000,
|
|
#BPMCHANGE 175.93
|
|
#SCROLL 1
|
|
000000000000000000000000000000000080000000000000,
|
|
#BPMCHANGE 176.78
|
|
#SCROLL 0.99
|
|
100000000000200000100000100000000000200000000000,
|
|
#BPMCHANGE 177.73
|
|
#SCROLL 0.98
|
|
200000000000100000200000100000200000100000000000,
|
|
#BPMCHANGE 176.31
|
|
#SCROLL 0.99
|
|
100000000000200000100000100000000000200000000000,
|
|
#BPMCHANGE 177.25
|
|
200000000000100000200000100000200000100000000000,
|
|
#BPMCHANGE 178.11
|
|
#SCROLL 0.98
|
|
100000000000100000100000000000000000300000000000,
|
|
#BPMCHANGE 174.04
|
|
#SCROLL 1.01
|
|
300000300000000000000000400000000000400000700000,
|
|
#BPMCHANGE 178.73
|
|
#SCROLL 0.98
|
|
,
|
|
#BPMCHANGE 178.3
|
|
8,
|
|
|
|
#GOGOEND
|
|
#BPMCHANGE 174.45
|
|
#SCROLL 1
|
|
100000000000200000100000200000100000000000200000,
|
|
#BPMCHANGE 178.59
|
|
#SCROLL 0.98
|
|
000000200000100000000000200000100000200000000000,
|
|
#BPMCHANGE 176.54
|
|
#SCROLL 0.99
|
|
100000000000200000100000200000100000000000200000,
|
|
000000200000100000000000200000100000200000000000,
|
|
#BPMCHANGE 177.63
|
|
100000000000200000100000200000100000000000200000,
|
|
#BPMCHANGE 176.49
|
|
000000200000100000000000200000100000200000000000,
|
|
#BPMCHANGE 177.63
|
|
100000000000200000100000200000100000000000000000,
|
|
#BPMCHANGE 178.49
|
|
#SCROLL 0.98
|
|
500000000000000000000000000000000080000000000000,
|
|
#BPMCHANGE 175.84
|
|
#SCROLL 1
|
|
100000000000200000100000200000100000000000200000,
|
|
#BPMCHANGE 177.06
|
|
#SCROLL 0.99
|
|
000000200000100000000000200000100000200000000000,
|
|
#BPMCHANGE 176.87
|
|
100000000000200000100000200000100000000000200000,
|
|
#BPMCHANGE 177.16
|
|
000000200000100000000000200000100000200000000000,
|
|
#BPMCHANGE 177.25
|
|
100000000000200000100000200000100000000000200000,
|
|
#BPMCHANGE 176.02
|
|
000000200000100000000000200000100000200000000000,
|
|
#BPMCHANGE 177.25
|
|
100000000000200000100000200000100000000000000000,
|
|
#BPMCHANGE 178.4
|
|
#SCROLL 0.98
|
|
500000000000000000000000000080000000000000000000,
|
|
#BPMCHANGE 147
|
|
#SCROLL 1.19
|
|
300000000000000000300000000000000000000000000000,
|
|
|
|
|
|
#END
|
|
|
|
|
|
COURSE:Normal
|
|
LEVEL:5
|
|
BALLOON:9,9
|
|
SCOREINIT:790
|
|
SCOREDIFF:210
|
|
|
|
|
|
#START
|
|
|
|
|
|
100000000000000000100000000000000000200000000000,
|
|
#BPMCHANGE 177.46
|
|
#SCROLL 0.99
|
|
100000000000000000100000000000000000200000000000,
|
|
#BPMCHANGE 177.61
|
|
100000000000000000100000000000000000200000000000,
|
|
#BPMCHANGE 175.37
|
|
#SCROLL 1
|
|
100000000000000000100000000000000000200000000000,
|
|
#BPMCHANGE 175.56
|
|
100000000000000000100000000000000000200000000000,
|
|
#BPMCHANGE 179
|
|
#SCROLL 0.98
|
|
400000000000000000000000000000000000000000000000,
|
|
#BPMCHANGE 177
|
|
#SCROLL 0.99
|
|
100000000000000000100000000000000000000000000000,
|
|
000000000000100000000000000000100000000000000000,
|
|
100000000000000000100000000000000000000000000000,
|
|
000000000000100000000000000000100000000000000000,
|
|
100000000000000000100000000000000000000000000000,
|
|
000000000000100000000000000000100000000000000000,
|
|
100000000000000000100000000000000000000000000000,
|
|
000000100000100000000000200000200000000000000000,
|
|
100000000000000000100000000000000000200000000000,
|
|
000000000000100000000000100000000000000000000000,
|
|
100000000000000000100000000000000000200000000000,
|
|
000000000000100000000000100000000000000000000000,
|
|
100000000000000000100000000000000000200000000000,
|
|
000000000000100000000000100000000000000000000000,
|
|
100000000000000000100000000000000000000000000000,
|
|
300000000000300000000000000000000000000000000000,
|
|
200000000000000000200000000000000000200000000000,
|
|
000000000000200000000000200000000000000000000000,
|
|
200000000000000000200000000000000000200000000000,
|
|
000000000000200000000000200000000000000000000000,
|
|
200000000000000000200000000000000000200000000000,
|
|
000000000000200000000000200000000000000000000000,
|
|
200000000000000000200000000000000000000000000000,
|
|
#BPMCHANGE 177.85
|
|
#SCROLL 0.98
|
|
400000000000400000000000300000000000000000300000,
|
|
000000000000000000000000200000000000000000000000,
|
|
#BPMCHANGE 175.32
|
|
#SCROLL 1
|
|
100000000000100000000000200000000000000000000000,
|
|
#BPMCHANGE 178.45
|
|
#SCROLL 0.98
|
|
100000000000000000000000200000000000000000000000,
|
|
#BPMCHANGE 177.06
|
|
#SCROLL 0.99
|
|
100000000000100000000000200000000000000000000000,
|
|
#BPMCHANGE 178.3
|
|
#SCROLL 0.98
|
|
100000000000000000000000200000000000000000000000,
|
|
#BPMCHANGE 176.49
|
|
#SCROLL 0.99
|
|
100000000000100000000000200000000000000000000000,
|
|
#BPMCHANGE 178.78
|
|
#SCROLL 0.98
|
|
100000000000000000000000100000000000100000000000,
|
|
#BPMCHANGE 176.4
|
|
#SCROLL 0.99
|
|
000000000000000000000000100000000000100000500000,
|
|
#BPMCHANGE 177.35
|
|
000000000000000000000000000000000080000000000000,
|
|
#BPMCHANGE 173.28
|
|
#SCROLL 1.01
|
|
300000000000000000000000000000000000000000000000,
|
|
|
|
#GOGOSTART
|
|
#BPMCHANGE 179.34
|
|
#SCROLL 0.98
|
|
100000000000000000100000100000000000000000000000,
|
|
#BPMCHANGE 177.44
|
|
#SCROLL 0.99
|
|
000000000000200000000000200000000000200000000000,
|
|
#BPMCHANGE 179.17
|
|
#SCROLL 0.98
|
|
100000000000000000100000100000000000000000000000,
|
|
#BPMCHANGE 174.26
|
|
#SCROLL 1
|
|
000000000000200000000000200000000000200000000000,
|
|
#BPMCHANGE 178.11
|
|
#SCROLL 0.98
|
|
100000000000000000100000100000000000000000000000,
|
|
#BPMCHANGE 176.21
|
|
#SCROLL 0.99
|
|
000000000000200000000000200000000000200000000000,
|
|
#BPMCHANGE 176.31
|
|
600000000000000000000000000008000000000000600000,
|
|
#BPMCHANGE 178.56
|
|
#SCROLL 0.98
|
|
000000000000000000000000000000000080000000000000,
|
|
#BPMCHANGE 173.77
|
|
#SCROLL 1.01
|
|
100000000000000000100000100000000000000000000000,
|
|
#BPMCHANGE 178.56
|
|
#SCROLL 0.98
|
|
000000000000200000000000200000000000200000000000,
|
|
#BPMCHANGE 178.21
|
|
100000000000000000100000100000000000000000000000,
|
|
#BPMCHANGE 176.12
|
|
#SCROLL 0.99
|
|
000000000000200000000000200000000000200000000000,
|
|
#BPMCHANGE 177.35
|
|
100000000000100000100000000000000000100000000000,
|
|
#BPMCHANGE 176.4
|
|
100000100000000000000000400000000000400000700000,
|
|
#BPMCHANGE 176.31
|
|
,
|
|
#BPMCHANGE 178.3
|
|
#SCROLL 0.98
|
|
8,
|
|
#BPMCHANGE 178.88
|
|
100000000000000000200000200000000000000000000000,
|
|
#BPMCHANGE 175.93
|
|
#SCROLL 1
|
|
000000000000200000000000200000000000200000000000,
|
|
#BPMCHANGE 177.25
|
|
100000000000000000200000200000000000000000000000,
|
|
#BPMCHANGE 177.54
|
|
000000000000200000000000200000000000200000000000,
|
|
#BPMCHANGE 177.92
|
|
#SCROLL 0.98
|
|
100000000000000000200000200000000000000000000000,
|
|
#BPMCHANGE 175
|
|
#SCROLL 1
|
|
000000000000200000000000200000000000200000000000,
|
|
#BPMCHANGE 177.25
|
|
#SCROLL 0.99
|
|
600000000000000000000000000008000000000000600000,
|
|
#BPMCHANGE 175.93
|
|
#SCROLL 1
|
|
000000000000000000000000000000000080000000000000,
|
|
#BPMCHANGE 176.78
|
|
#SCROLL 0.99
|
|
100000000000000000200000200000000000000000000000,
|
|
#BPMCHANGE 177.73
|
|
#SCROLL 0.98
|
|
000000000000200000000000200000000000200000000000,
|
|
#BPMCHANGE 176.31
|
|
#SCROLL 0.99
|
|
100000000000000000200000200000000000000000000000,
|
|
#BPMCHANGE 177.25
|
|
000000000000200000000000200000000000200000000000,
|
|
#BPMCHANGE 178.11
|
|
#SCROLL 0.98
|
|
100000000000100000100000000000000000100000000000,
|
|
#BPMCHANGE 174.04
|
|
#SCROLL 1.01
|
|
100000100000000000000000400000000000400000700000,
|
|
000000000000000000000000000000000000000000000000,
|
|
#BPMCHANGE 178.73
|
|
#SCROLL 0.98
|
|
,
|
|
#BPMCHANGE 178.3
|
|
8,
|
|
|
|
#GOGOEND
|
|
#BPMCHANGE 174.45
|
|
#SCROLL 1
|
|
100000000000000000100000000000000000000000000000,
|
|
#BPMCHANGE 178.59
|
|
#SCROLL 0.98
|
|
000000000000100000000000000000100000000000000000,
|
|
#BPMCHANGE 176.54
|
|
#SCROLL 0.99
|
|
100000000000000000100000000000000000000000000000,
|
|
000000000000100000000000000000100000000000000000,
|
|
#BPMCHANGE 177.63
|
|
100000000000000000100000000000000000000000000000,
|
|
#BPMCHANGE 176.49
|
|
000000000000100000000000000000100000000000000000,
|
|
#BPMCHANGE 177.63
|
|
100000000000000000100000000000000000000000000000,
|
|
#BPMCHANGE 178.49
|
|
#SCROLL 0.98
|
|
000000100000100000000000200000200000000000000000,
|
|
#BPMCHANGE 175.84
|
|
#SCROLL 1
|
|
200000000000000000200000000000000000000000000000,
|
|
#BPMCHANGE 177.06
|
|
#SCROLL 0.99
|
|
000000000000200000000000000000200000000000000000,
|
|
#BPMCHANGE 176.87
|
|
200000000000000000200000000000000000000000000000,
|
|
#BPMCHANGE 177.16
|
|
000000000000200000000000000000200000000000000000,
|
|
#BPMCHANGE 177.25
|
|
200000000000000000200000000000000000000000000000,
|
|
#BPMCHANGE 176.02
|
|
000000000000200000000000000000200000000000000000,
|
|
#BPMCHANGE 177.25
|
|
200000000000000000200000000000000000000000000000,
|
|
#BPMCHANGE 178.4
|
|
#SCROLL 0.98
|
|
500000000000000000000000000080000000000000000000,
|
|
#BPMCHANGE 147
|
|
#SCROLL 1.19
|
|
300000000000000000300000000000000000000000000000,
|
|
|
|
|
|
#END
|
|
|
|
|
|
COURSE:Easy
|
|
LEVEL:4
|
|
BALLOON:8,8
|
|
SCOREINIT:680
|
|
SCOREDIFF:160
|
|
|
|
|
|
#START
|
|
|
|
|
|
100000000000000000100000000000000000000000000000,
|
|
#BPMCHANGE 177.46
|
|
#SCROLL 0.99
|
|
100000000000000000100000000000000000000000000000,
|
|
#BPMCHANGE 177.61
|
|
100000000000000000100000000000000000000000000000,
|
|
#BPMCHANGE 175.37
|
|
#SCROLL 1
|
|
100000000000000000100000000000000000000000000000,
|
|
#BPMCHANGE 175.56
|
|
100000000000000000100000000000000000000000000000,
|
|
#BPMCHANGE 179
|
|
#SCROLL 0.98
|
|
400000000000000000000000000000000000000000000000,
|
|
#BPMCHANGE 177
|
|
#SCROLL 0.99
|
|
100000000000000000100000000000000000000000200000,
|
|
000000000000200000000000000000000000000000000000,
|
|
100000000000000000100000000000000000000000200000,
|
|
000000000000200000000000000000000000000000000000,
|
|
100000000000000000100000000000000000000000200000,
|
|
000000000000200000000000000000000000000000000000,
|
|
500000000000000000000000000000000000000000000000,
|
|
000000000000000000000000000080000000000000000000,
|
|
100000000000000000100000000000000000100000000000,
|
|
000000000000000000000000000000000000000000000000,
|
|
100000000000000000100000000000000000100000000000,
|
|
000000000000000000000000000000000000000000000000,
|
|
100000000000000000100000000000000000100000000000,
|
|
000000000000000000000000000000000000000000000000,
|
|
300000000000000000300000000000000000000000000000,
|
|
000000000000000000000000000000000000000000000000,
|
|
200000000000000000200000000000000000200000000000,
|
|
000000000000000000000000000000000000000000000000,
|
|
200000000000000000200000000000000000200000000000,
|
|
000000000000000000000000000000000000000000000000,
|
|
200000000000000000200000000000000000200000000000,
|
|
000000000000000000000000000000000000000000000000,
|
|
400000000000000000400000000000000000000000000000,
|
|
#BPMCHANGE 177.85
|
|
#SCROLL 0.98
|
|
000000000000000000000000000000000000000000300000,
|
|
000000000000000000000000100000000000000000000000,
|
|
#BPMCHANGE 175.32
|
|
#SCROLL 1
|
|
100000000000100000000000100000000000000000000000,
|
|
#BPMCHANGE 178.45
|
|
#SCROLL 0.98
|
|
100000000000000000000000100000000000000000000000,
|
|
#BPMCHANGE 177.06
|
|
#SCROLL 0.99
|
|
100000000000100000000000100000000000000000000000,
|
|
#BPMCHANGE 178.3
|
|
#SCROLL 0.98
|
|
100000000000000000000000100000000000000000000000,
|
|
#BPMCHANGE 176.49
|
|
#SCROLL 0.99
|
|
100000000000100000000000100000000000000000000000,
|
|
#BPMCHANGE 178.78
|
|
#SCROLL 0.98
|
|
100000000000000000000000100000000000100000000000,
|
|
#BPMCHANGE 176.4
|
|
#SCROLL 0.99
|
|
000000000000000000000000100000000000100000000000,
|
|
#BPMCHANGE 177.35
|
|
500000000000000000000000000080000000000000000000,
|
|
#BPMCHANGE 173.28
|
|
#SCROLL 1.01
|
|
300000000000000000000000000000000000000000000000,
|
|
|
|
#GOGOSTART
|
|
#BPMCHANGE 179.34
|
|
#SCROLL 0.98
|
|
100000000000000000000000100000000000000000000000,
|
|
#BPMCHANGE 177.44
|
|
#SCROLL 0.99
|
|
000000000000100000000000100000000000100000000000,
|
|
#BPMCHANGE 179.17
|
|
#SCROLL 0.98
|
|
100000000000000000000000100000000000000000000000,
|
|
#BPMCHANGE 174.26
|
|
#SCROLL 1
|
|
000000000000100000000000100000000000100000000000,
|
|
#BPMCHANGE 178.11
|
|
#SCROLL 0.98
|
|
100000000000000000000000100000000000000000000000,
|
|
#BPMCHANGE 176.21
|
|
#SCROLL 0.90
|
|
000000000000100000000000100000000000100000000000,
|
|
#BPMCHANGE 176.31
|
|
600000000000000000000000000008000000000000600000,
|
|
#BPMCHANGE 178.56
|
|
#SCROLL 0.98
|
|
000000000000000000000000000008000000000000000000,
|
|
#BPMCHANGE 173.77
|
|
#SCROLL 1.01
|
|
100000000000000000000000100000000000000000000000,
|
|
#BPMCHANGE 178.56
|
|
#SCROLL 0.98
|
|
000000000000100000000000100000000000100000000000,
|
|
#BPMCHANGE 178.21
|
|
100000000000000000000000100000000000000000000000,
|
|
#BPMCHANGE 176.12
|
|
#SCROLL 0.99
|
|
000000000000100000000000100000000000100000000000,
|
|
#BPMCHANGE 177.35
|
|
100000000000000000000000100000000000000000000000,
|
|
#BPMCHANGE 176.4
|
|
100000000000000000000000300000000000000000700000,
|
|
#BPMCHANGE 176.31
|
|
,
|
|
#BPMCHANGE 178.3
|
|
#SCROLL 0.98
|
|
8,
|
|
#BPMCHANGE 178.88
|
|
100000000000000000000000100000000000000000000000,
|
|
#BPMCHANGE 175.93
|
|
#SCROLL 1
|
|
000000000000100000000000100000000000100000000000,
|
|
#BPMCHANGE 177.25
|
|
100000000000000000000000100000000000000000000000,
|
|
#BPMCHANGE 177.54
|
|
000000000000100000000000100000000000100000000000,
|
|
#BPMCHANGE 177.92
|
|
#SCROLL 0.98
|
|
100000000000000000000000100000000000000000000000,
|
|
#BPMCHANGE 175
|
|
#SCROLL 1
|
|
000000000000100000000000100000000000100000000000,
|
|
#BPMCHANGE 177.25
|
|
#SCROLL 0.99
|
|
600000000000000000000000000008000000000000600000,
|
|
#BPMCHANGE 175.93
|
|
#SCROLL 1
|
|
000000000000000000000000000008000000000000000000,
|
|
#BPMCHANGE 176.78
|
|
#SCROLL 0.99
|
|
100000000000000000000000200000000000000000000000,
|
|
#BPMCHANGE 177.73
|
|
#SCROLL 0.98
|
|
000000000000200000000000200000000000200000000000,
|
|
#BPMCHANGE 176.31
|
|
#SCROLL 0.99
|
|
100000000000000000000000200000000000000000000000,
|
|
#BPMCHANGE 177.25
|
|
000000000000200000000000200000000000200000000000,
|
|
#BPMCHANGE 178.11
|
|
#SCROLL 0.98
|
|
100000000000000000000000100000000000000000000000,
|
|
#BPMCHANGE 174.04
|
|
#SCROLL 1.01
|
|
100000000000000000000000300000000000000000700000,
|
|
#BPMCHANGE 178.73
|
|
#SCROLL 0.98
|
|
,
|
|
#BPMCHANGE 178.3
|
|
8,
|
|
|
|
#GOGOEND
|
|
#BPMCHANGE 174.45
|
|
#SCROLL 1
|
|
100000000000000000100000000000000000000000100000,
|
|
#BPMCHANGE 178.59
|
|
#SCROLL 0.98
|
|
000000000000100000000000000000000000000000000000,
|
|
#BPMCHANGE 176.54
|
|
#SCROLL 0.99
|
|
100000000000000000100000000000000000000000100000,
|
|
000000000000100000000000000000000000000000000000,
|
|
#BPMCHANGE 177.63
|
|
100000000000000000100000000000000000000000100000,
|
|
#BPMCHANGE 176.49
|
|
000000000000100000000000000000000000000000000000,
|
|
#BPMCHANGE 177.63
|
|
500000000000000000000000000000000000000000000000,
|
|
#BPMCHANGE 178.49
|
|
#SCROLL 0.98
|
|
000000000000000000000000000080000000000000000000,
|
|
#BPMCHANGE 175.84
|
|
#SCROLL 1
|
|
100000000000000000100000000000000000000000200000,
|
|
#BPMCHANGE 177.06
|
|
#SCROLL 0.99
|
|
000000000000200000000000000000000000000000000000,
|
|
#BPMCHANGE 176.87
|
|
100000000000000000100000000000000000000000200000,
|
|
#BPMCHANGE 177.16
|
|
000000000000200000000000000000000000000000000000,
|
|
#BPMCHANGE 177.25
|
|
100000000000000000100000000000000000000000200000,
|
|
#BPMCHANGE 176.02
|
|
000000000000200000000000000000000000000000000000,
|
|
#BPMCHANGE 177.25
|
|
500000000000000000000000000000000000000000000000,
|
|
#BPMCHANGE 178.4
|
|
#SCROLL 0.98
|
|
000000000000000000000000000080000000000000000000,
|
|
#BPMCHANGE 147
|
|
#SCROLL 1.19
|
|
300000000000000000300000000000000000000000000000,
|
|
|
|
|
|
#END
|
|
|