Files
ESE/01 Pop/C Da Diao/C Da Diao.tja
T

370 lines
8.9 KiB
Plaintext

//TJADB Project
TITLE:C Da Diao
TITLEZH:C大調
SUBTITLE:--Angela Chang/Le Tea Kiwifruit Tea
SUBTITLEZH:張韶涵
BPM:116
WAVE:C Da Diao.ogg
OFFSET:-4.332
DEMOSTART:49.321
COURSE:Oni
LEVEL:8
SCOREINIT:780
SCOREDIFF:180
#START
000000000000000000000000000000000000000000000000,
000000000000000000000000100000100000100000200200,
100000100000200000100000100100100000200000100000,
100000100000200000100000200200200000200000000000,
100000100000200000100000100100100000200000100000,
100000100000200000100000200200200200200000000000,
200000100000200000100000200000100100200000100000,
200000100000200000100000200000000000000000000000,
200000100000200000100000200000100100200000100000,
200000100100200000100000200000000000000000000000,
200000100000200000100000200200100000200000100000,
200000200200200000100000100000000000000000000000,
200000100000200000100000200000200200200000200000,
100100100000200000200200100000000000000000000000,
100000100000200000100000100000100100200000100000,
100000100000200000100000200000200000200000000000,
100000100000200000100000100000100100200000100000,
100000100000200000100000200000200000200000000000,
100000100100200000100000200200100000200000100000,
100000100100200000100000200000200000200000100000,
100000100100200000100000100000100100200000100000,
000000200000200000200000200000100000100000100100,
#GOGOSTART
100000100100200100000100200000100000200200100000,
100000200100200000100000200200200000200000100000,
100000100100200000100000200200100000200000000000,
100000100100200000100000200200200000200000000000,
100000100100200100000100200000100000200200100000,
100000200100200000100000200200200000200000100000,
100000100100200000100000200200100000200000000000,
300000300000300000300000000000000000200000200000,
#GOGOEND
100100200200100100200200100000200000100000200000,
100100200200100100200200100000200000100000000000,
100200100200100200100000100000100000200000200000,
100200100200100200100100100000100000200000200000,
100200100200100000200000100200100200100000200000,
100000100100100000100000200200100000100100200200,
100000100100100000100000200000200200200000200000,
100000000000100000200000100000100000100000100100,
#GOGOSTART
100000100100200100000100200000100000200200100000,
100000200100200000100000200200200000200000100000,
100000100100200000100000200200100000200000000000,
100000100100200000100000200200200000200000000000,
100000100100200100000100200000100000200200100000,
100000200100200000100000200200200000200000100000,
100000100100200000100000200200100000200000000000,
#MEASURE 17/16
30303030000020200,
#GOGOEND
#END
COURSE:Hard
LEVEL:4
SCOREINIT:780
SCOREDIFF:220
#START
,
00001110,
10201120,
10201120,
10201120,
1000200022202000,
2222,
11111000,
2222,
11111000,
10210120,
10210122,
10201120,
1000202220000000,
#SECTION
#BRANCHSTART p,75,90
#N
11201020,
11201000,
11201020,
11201000,
11202020,
11211000,
11201120,
20222000,
#E
11211020,
11211000,
11211020,
11211000,
11202120,
11211000,
11201120,
22222000,
#M
11211120,
11211000,
11211120,
11211000,
11202122,
11211000,
11201120,
22222000,
#GOGOSTART
#SECTION
#BRANCHSTART p,75,90
#N
10201120,
10211000,
10201120,
10121000,
10201120,
10211000,
10201120,
33330022,
#GOGOEND
10200121,
10200120,
10102220,
10102220,
1111,
2222,
2022,
1,
#E
11201120,
10211020,
11201120,
12121000,
11201120,
10211020,
11201120,
33330022,
#GOGOEND
10210121,
10210120,
10102220,
10102220,
10101110,
20202220,
2222,
1,
#M
11201121,
10211020,
11201121,
12121000,
11201121,
10211020,
11201121,
33330022,
#GOGOEND
10210121,
10210120,
11102222,
11102222,
11101110,
22202220,
2022,
1,
#GOGOSTART
#SECTION
#BRANCHSTART p,75,90
#N
10201120,
10211000,
10201120,
10121000,
10201120,
10211000,
10201102,
#MEASURE 17/16
30303030000020200,
#E
11201120,
10211020,
11201120,
12121000,
11201120,
10211020,
11201120,
#MEASURE 17/16
30303030000020200,
#M
11201121,
10211020,
11201121,
12121000,
11201121,
10211020,
11201121,
#MEASURE 17/16
30303030000020200,
#BRANCHEND
#GOGOEND
#END
COURSE:Normal
LEVEL:4
BALLOON:6
SCOREINIT:1180
SCOREDIFF:370
#START
000000000000000000000000000000000000000000000000,
000000000000000000000000000000000000000000000000,
100000000000200000000000000000000000200000000000,
100000000000200000000000000000000000200000000000,
100000000000200000000000000000000000200000000000,
100000000000100000000000100000000000000000000000,
200000000000200000000000200000000000200000000000,
100000000000100000000000100000000000000000000000,
200000000000200000000000200000000000200000000000,
100000000000100000000000100000000000000000000000,
100000000000100000000000100000000000100000000000,
100000000000000000000000100000000000000000000000,
100000000000100000000000200000000000200000000000,
100000000000000000000000000000000000000000000000,
100000000000200000000000100000000000000000000000,
100000000000200000000000100000000000000000000000,
100000000000200000000000100000000000000000000000,
100000000000200000000000100000000000000000000000,
100000000000200000000000100000000000200000000000,
100000000000200000000000100000000000000000000000,
900000000000000000000000000000000000000000000000,
000000000000800000000000000000000000000000000000,
#GOGOSTART
100000000000200000000000100000000000200000000000,
100000000000200000000000100000000000000000000000,
100000000000200000000000100000000000200000000000,
100000000000100000000000100000000000000000000000,
100000000000200000000000100000000000200000000000,
100000000000200000000000100000000000000000000000,
100000000000000000000000100000000000000000000000,
300000300000300000300000000000000000200000000000,
#GOGOEND
100000000000000000000000100000000000200000000000,
100000000000000000000000100000000000000000000000,
100000000000000000000000200000000000200000000000,
100000000000000000000000200000000000200000000000,
100000000000100000000000100000000000100000000000,
200000000000200000000000200000000000200000000000,
200000000000000000000000200000000000000000000000,
100000000000000000000000000000000000000000000000,
#GOGOSTART
100000000000200000000000100000000000200000000000,
100000000000200000000000100000000000000000000000,
100000000000200000000000100000000000200000000000,
100000000000100000000000100000000000000000000000,
100000000000200000000000100000000000200000000000,
100000000000200000000000100000000000000000000000,
100000000000000000000000100000000000000000000000,
#MEASURE 17/16
30303030000020000,
#GOGOEND
#END
COURSE:Easy
LEVEL:4
BALLOON:5
SCOREINIT:1010
SCOREDIFF:400
#START
000000000000000000000000000000000000000000000000,
000000000000000000000000000000000000000000000000,
100000000000000000000000100000000000000000000000,
100000000000100000000000100000000000000000000000,
100000000000000000000000100000000000000000000000,
100000000000100000000000100000000000000000000000,
200000000000000000000000200000000000000000000000,
100000000000100000000000100000000000000000000000,
200000000000000000000000200000000000000000000000,
100000000000100000000000100000000000000000000000,
100000000000000000000000100000000000000000000000,
100000000000100000000000100000000000000000000000,
100000000000000000000000200000000000000000000000,
100000000000000000000000000000000000000000000000,
100000000000000000000000100000000000000000000000,
100000000000100000000000100000000000000000000000,
100000000000000000000000100000000000000000000000,
100000000000100000000000100000000000000000000000,
100000000000000000000000200000000000000000000000,
100000000000100000000000100000000000000000000000,
900000000000000000000000000000000000000000000000,
000000000000800000000000000000000000000000000000,
#GOGOSTART
100000000000000000000000100000000000000000000000,
100000000000100000000000100000000000000000000000,
100000000000000000000000100000000000000000000000,
100000000000100000000000100000000000000000000000,
200000000000000000000000200000000000000000000000,
200000000000200000000000200000000000000000000000,
100000000000000000000000100000000000000000000000,
300000000000300000000000000000000000000000000000,
#GOGOEND
100000000000000000000000100000000000000000000000,
100000000000000000000000100000000000000000000000,
100000000000000000000000200000000000000000000000,
100000000000000000000000200000000000000000000000,
100000000000000000000000100000000000000000000000,
200000000000000000000000200000000000000000000000,
100000000000000000000000200000000000000000000000,
100000000000000000000000000000000000000000000000,
#GOGOSTART
100000000000200000000000100000000000200000000000,
100000000000200000000000100000000000000000000000,
100000000000200000000000100000000000200000000000,
100000000000100000000000100000000000000000000000,
100000000000200000000000100000000000200000000000,
100000000000200000000000100000000000000000000000,
100000000000000000000000100000000000000000000000,
#MEASURE 17/16
30303030000020000,
#GOGOEND
#END