331 lines
8.6 KiB
Plaintext
331 lines
8.6 KiB
Plaintext
//TJADB Project
|
|
TITLE:Cao Cao
|
|
TITLEZH:曹操
|
|
SUBTITLE:--JJ Lin
|
|
SUBTITLEZH:林俊傑
|
|
BPM:144
|
|
WAVE:Cao Cao.ogg
|
|
OFFSET:-1.928
|
|
DEMOSTART:41.893
|
|
|
|
COURSE:Oni
|
|
LEVEL:6
|
|
SCOREINIT:970
|
|
SCOREDIFF:250
|
|
|
|
|
|
#START
|
|
|
|
|
|
10201201,
|
|
01211001,
|
|
10201201,
|
|
01211011,
|
|
10201201,
|
|
01211001,
|
|
10201201,
|
|
01211011,
|
|
|
|
#SECTION
|
|
#BRANCHSTART p,75,90
|
|
#N
|
|
12,
|
|
1120,
|
|
12,
|
|
1220,
|
|
12,
|
|
1112,
|
|
1111,
|
|
11101111,
|
|
10111011,
|
|
1010111010000000,
|
|
10111000,
|
|
11102222,
|
|
2000111000111000,
|
|
1110001110001000,
|
|
11101111,
|
|
2000001110100000,
|
|
|
|
#E
|
|
12,
|
|
10111000,
|
|
12,
|
|
10222000,
|
|
12,
|
|
10111020,
|
|
10111010,
|
|
11111111,
|
|
1000111010001110,
|
|
1010111010001110,
|
|
1000111010001110,
|
|
1010111010111010,
|
|
2000222000222000,
|
|
2220002220001000,
|
|
11111111,
|
|
2000001110100000,
|
|
|
|
#M
|
|
12,
|
|
10112000,
|
|
12,
|
|
10111000,
|
|
12,
|
|
10112020,
|
|
10111010,
|
|
21122111,
|
|
1000111020001110,
|
|
1020111020001110,
|
|
1000111020001110,
|
|
1020111020111010,
|
|
2000112000112000,
|
|
1120001120001000,
|
|
12112111,
|
|
2000002210100000,
|
|
|
|
#GOGOSTART
|
|
#SECTION
|
|
#BRANCHSTART p,75,90
|
|
#N
|
|
1000111020000011,
|
|
1000111020000011,
|
|
1000111020000011,
|
|
1010111010101000,
|
|
1000111000200000,
|
|
1000111000200000,
|
|
500000000000000000000000000000000008000000000000,
|
|
30430300,
|
|
1000111020000011,
|
|
1000111020000011,
|
|
1000111020000011,
|
|
1010111010101000,
|
|
1000111000200000,
|
|
1000111000200000,
|
|
500000000000000000000000000000000008000000000000,
|
|
30340400,
|
|
6,
|
|
000000000000000000000000000000000008000000000000,
|
|
|
|
#E
|
|
1000111010100011,
|
|
1000111010100011,
|
|
1000111010100011,
|
|
1010111010111000,
|
|
1000111000222020,
|
|
1000111000111010,
|
|
1111111110000000,
|
|
30430300,
|
|
1000111010100011,
|
|
1000111010100011,
|
|
1000111010100011,
|
|
1010111010111000,
|
|
1000111000222020,
|
|
1000111000111010,
|
|
1111111110001000,
|
|
30340400,
|
|
6,
|
|
000000000000000000000000000000000008000000000000,
|
|
|
|
#M
|
|
1000111020100011,
|
|
1000111020100011,
|
|
1000111020100011,
|
|
1020111020111020,
|
|
1000111010222020,
|
|
1022111020111010,
|
|
1111111110000000,
|
|
30430300,
|
|
1000111020100011,
|
|
1020111020100011,
|
|
1000111020100011,
|
|
1020111020111020,
|
|
1000111010222020,
|
|
1022111020111010,
|
|
1111111110001000,
|
|
30340400,
|
|
6,
|
|
000000000000000000000000000000000008000000000000,
|
|
|
|
#BRANCHEND
|
|
#GOGOEND
|
|
|
|
|
|
#END
|
|
|
|
|
|
COURSE:Hard
|
|
LEVEL:5
|
|
SCOREINIT:1070
|
|
SCOREDIFF:290
|
|
|
|
|
|
#START
|
|
|
|
|
|
100000000000200000000000100000200000000000100000,
|
|
000000100000200000000000100000000000000000000000,
|
|
100000000000200000000000100000200000000000100000,
|
|
000000100000200000000000100000000000000000000000,
|
|
100000000000200000000000100000200000000000100000,
|
|
000000100000200000000000100000000000000000000000,
|
|
100000000000200000000000100000200000000000100000,
|
|
000000100000200000000000100000000000100000100000,
|
|
100000000000000000000000200000000000000000000000,
|
|
100000000000100000000000200000000000000000000000,
|
|
100000000000000000000000200000000000000000000000,
|
|
100000000000100000000000100000000000000000000000,
|
|
100000000000000000000000200000000000000000000000,
|
|
100000000000100000000000200000000000100000100000,
|
|
000000000000100000000000100000000000000000000000,
|
|
200000200000200000000000100000100000100000000000,
|
|
100000000000100100100000100000000000100000100000,
|
|
000000200000100100100000200000000000000000000000,
|
|
100000000000100100100000200000000000100000100000,
|
|
000000200000100100100000200000000000100000100000,
|
|
100000000000100100100000000000100100100000000000,
|
|
100100100000000000100100100000000000100000000000,
|
|
500000000000000000000000000000000000000000000800,
|
|
000000000000000000100100100000100000000000000000,
|
|
#GOGOSTART
|
|
100000000000100100100000100000100000000000100000,
|
|
100000000000100100100000100000100000000000100000,
|
|
100000000000100100100000100000100000000000100000,
|
|
100000200000100000000000200000100000100000000000,
|
|
100000000000100100100000100000100000000000100000,
|
|
100000200000100000000000200000100000100000100000,
|
|
500000000000000000000000000000800000000000000000,
|
|
300000000000400000300000000000300000000000000000,
|
|
100000000000100100100000100000100000000000100000,
|
|
100000000000100100100000100000100000000000100000,
|
|
100000000000100100100000100000100000000000100000,
|
|
100000200000100000000000200000100000100000000000,
|
|
100000000000100100100000100000100000000000100000,
|
|
100000200000100000000000200000100000100000100000,
|
|
500000000000000000000000000000800000000000000000,
|
|
300000000000400000300000000000300000000000000000,
|
|
600000000000000000000000000000000000000000000000,
|
|
000000000000000000000000000000000008000000000000,
|
|
#GOGOEND
|
|
|
|
|
|
#END
|
|
|
|
|
|
COURSE:Normal
|
|
LEVEL:5
|
|
BALLOON:8
|
|
SCOREINIT:1590
|
|
SCOREDIFF:520
|
|
|
|
|
|
#START
|
|
|
|
|
|
100000000000000000000000100000000000000000000000,
|
|
100000000000100000000000100000000000000000000000,
|
|
100000000000000000000000200000000000000000000000,
|
|
100000000000200000000000200000000000000000000000,
|
|
100000000000000000000000100000000000000000000000,
|
|
100000000000100000000000100000000000000000000000,
|
|
100000000000000000000000200000000000000000000000,
|
|
100000000000200000000000200000000000000000000000,
|
|
100000000000000000000000200000000000000000000000,
|
|
100000000000100000000000200000000000000000000000,
|
|
100000000000000000000000200000000000000000000000,
|
|
100000000000100000000000100000000000000000000000,
|
|
100000000000000000000000200000000000000000000000,
|
|
100000000000100000000000200000000000000000000000,
|
|
100000000000000000000000200000000000000000000000,
|
|
200000000000200000000000100000000000000000000000,
|
|
100000000000100000100000100000000000000000000000,
|
|
100000000000100000000000100000000000000000000000,
|
|
100000000000100000100000100000000000000000000000,
|
|
200000000000200000000000200000000000000000000000,
|
|
100000000000000000000000100000000000000000000000,
|
|
100000000000000000000000100000000000100000000000,
|
|
9008,
|
|
,
|
|
|
|
#GOGOSTART
|
|
100000000000100000100000100000000000000000000000,
|
|
100000000000100000100000100000000000000000000000,
|
|
100000000000100000100000100000000000100000000000,
|
|
500000000000000000000000800000000000000000000000,
|
|
100000000000200000200000200000000000000000000000,
|
|
100000000000200000200000200000000000200000000000,
|
|
500000000000000000000000800000000000000000000000,
|
|
300000000000000000300000000000300000000000000000,
|
|
100000000000100000100000100000000000000000000000,
|
|
100000000000100000100000100000000000000000000000,
|
|
100000000000100000100000100000000000100000000000,
|
|
500000000000000000000000800000000000000000000000,
|
|
100000000000200000200000200000000000000000000000,
|
|
100000000000200000200000200000000000200000000000,
|
|
500000000000000000000000800000000000000000000000,
|
|
300000000000000000300000000000300000000000000000,
|
|
600000000000000000000000000000000000000000000000,
|
|
000000000000000000000000000000000008000000000000,
|
|
#GOGOEND
|
|
|
|
|
|
#END
|
|
|
|
|
|
COURSE:Easy
|
|
LEVEL:3
|
|
BALLOON:5
|
|
SCOREINIT:1240
|
|
SCOREDIFF:450
|
|
|
|
|
|
#START
|
|
|
|
|
|
100000000000000000000000100000000000000000000000,
|
|
100000000000100000000000100000000000000000000000,
|
|
100000000000000000000000100000000000000000000000,
|
|
100000000000100000000000100000000000000000000000,
|
|
100000000000000000000000100000000000000000000000,
|
|
100000000000100000000000100000000000000000000000,
|
|
100000000000000000000000100000000000000000000000,
|
|
100000000000100000000000100000000000000000000000,
|
|
100000000000000000000000200000000000000000000000,
|
|
100000000000000000000000200000000000000000000000,
|
|
100000000000000000000000200000000000000000000000,
|
|
100000000000000000000000000000000000000000000000,
|
|
100000000000000000000000200000000000000000000000,
|
|
100000000000000000000000200000000000000000000000,
|
|
100000000000000000000000100000000000000000000000,
|
|
100000000000000000000000000000000000000000000000,
|
|
100000000000100000000000100000000000000000000000,
|
|
100000000000000000000000100000000000000000000000,
|
|
100000000000100000000000100000000000000000000000,
|
|
200000000000000000000000200000000000000000000000,
|
|
100000000000000000000000100000000000000000000000,
|
|
100000000000000000000000100000000000100000000000,
|
|
700000000000000000000000000000800000000000000000,
|
|
000000000000000000000000000000000000000000000000,
|
|
#GOGOSTART
|
|
100000000000000000000000100000000000000000000000,
|
|
100000000000100000000000100000000000000000000000,
|
|
100000000000100000000000100000000000100000000000,
|
|
500000000000000000000000800000000000000000000000,
|
|
100000000000000000000000200000000000000000000000,
|
|
100000000000000000000000200000000000000000000000,
|
|
500000000000000000000000800000000000000000000000,
|
|
300000000000000000000000000000300000000000000000,
|
|
100000000000000000000000100000000000000000000000,
|
|
100000000000100000000000100000000000000000000000,
|
|
100000000000100000000000100000000000100000000000,
|
|
500000000000000000000000800000000000000000000000,
|
|
100000000000000000000000200000000000000000000000,
|
|
100000000000000000000000200000000000000000000000,
|
|
500000000000000000000000800000000000000000000000,
|
|
300000000000000000000000000000300000000000000000,
|
|
600000000000000000000000000000000000000000000000,
|
|
000000000000000000000000000000000008000000000000,
|
|
#GOGOEND
|
|
|
|
|
|
#END
|
|
|