408 lines
17 KiB
Plaintext
408 lines
17 KiB
Plaintext
//TJADB Project
|
||
TITLE:Champion Road
|
||
TITLEJA:チャンピオンロード
|
||
SUBTITLE:--Fischer’s [Ndaho & Peketan]
|
||
SUBTITLEJA:ぺけたん&ンダホ from フィッシャーズ
|
||
BPM:180
|
||
WAVE:Champion Road.ogg
|
||
OFFSET:-2.737
|
||
DEMOSTART:68.737
|
||
|
||
COURSE:Oni
|
||
LEVEL:8
|
||
BALLOON:3,4,10,3,3,4
|
||
SCOREINIT:560
|
||
SCOREDIFF:130
|
||
|
||
|
||
#START
|
||
|
||
|
||
200000000000000000000000200000000000000000000000,
|
||
200000000000200000000000200000700000000000800000,
|
||
300000000000200000000000100100100000200000100000,
|
||
100000000000200000000000100100100000200000100000,
|
||
100000000000200000000000100100100000200000100000,
|
||
100000000000200000000000200200100000200000100000,
|
||
000000100000200000000100100000100000200000100000,
|
||
000000100000200000000200100000100000200000100000,
|
||
000000100000200000000200100000100000200000300000,
|
||
000000100000200200100000200200100000400000000000,
|
||
300000000000200000000000100100100000200000100000,
|
||
200000000000200000000000100100100000200000100000,
|
||
200000000000200000000000100100100000200000100000,
|
||
200000000000200000000000200200100000200000100000,
|
||
000000100000200000000100100000100000200000100000,
|
||
000000100000200000000200100000100000200000100000,
|
||
000000100000200000000200100000100000200000300000,
|
||
000000100000400000000000200200100100200000000000,
|
||
300000000000200000000000100000100000200000000000,
|
||
100000000000200000100000100000000000200000000000,
|
||
100000000000200000100000100000000000200000100000,
|
||
100000000000200000000000100100100000200000100000,
|
||
000000000000200000100100100000100000200000100000,
|
||
000000000000200000000000100100100000200000100000,
|
||
000000000000200000000000100100100000200000000000,
|
||
500000000008000000200000700000000000000000800000,
|
||
100000000000200000000000100000100000200000000000,
|
||
100000000000200000100000100000000000200000200000,
|
||
100000000000200000100000100000000000200000100000,
|
||
100000000000200000000000300000300000000000300000,
|
||
000000000000200000100100100000200000100000200000,
|
||
000000000000200000000000100100100000200000100000,
|
||
300000000000200000100100100000100000200000000000,
|
||
400000000000200000100000200200100100200000000000,
|
||
300000000000100100100000100000100000200000000000,
|
||
100000000000200200200000200000100000200000000000,
|
||
100000000000100100100000100000100000200000000000,
|
||
100000000000200200200000200000100000200000000000,
|
||
500000000000000000000000000008000000100000500000,
|
||
000000000000000000000000000008000000300000600000,
|
||
000000000000000000000008000000300000300000700000,
|
||
000000000000000000000000000000000000800000000000,
|
||
100000000000100100100000100000100000200000000000,
|
||
100000000000200200200000200000100000200000000000,
|
||
100000000000100100100000100000100000200000000000,
|
||
100000000000200200200000200000100000200000000000,
|
||
300000000000100000100000100000100000100000100100,
|
||
100000000000100000200200100000200000100000000000,
|
||
400000000000200000100100200000100100200000100000,
|
||
200200200200200000000000300000300000200000300000,
|
||
|
||
#GOGOSTART
|
||
000000100000200000100100100000100000200000100000,
|
||
000000100000200000100100100000200000200000100000,
|
||
000000100000200000100100100000100000200000100000,
|
||
000000100000200000000100100000100000200000300000,
|
||
000000100100200000100000000000200200200000100000,
|
||
000000100100200000100000000000200200100000200000,
|
||
000000100000200000000100100000100000200000100100,
|
||
200000100000200000000200100000100000100000300000,
|
||
000000100000200000100100100000100000200000100000,
|
||
000000100000200000100100100000200000200000100000,
|
||
000000100000200000100100100000100000200000100000,
|
||
000000200000200000000100100000100000200000700000,
|
||
000000800000100000100100200000100000200000700000,
|
||
000000800000400000400000000000400000000000300000,
|
||
|
||
#GOGOEND
|
||
000000000000200000000000100100100000200000100000,
|
||
100000000000200000000000100100100000200000100000,
|
||
100000000000200000000000100100100000200000100000,
|
||
100000000000200000000000200200100000200000100000,
|
||
000000100000200000000100100000100000200000100000,
|
||
000000100000200000000100200000100000200000100000,
|
||
000000100000200000000100200000200000200000300000,
|
||
000000100000200200100000200200100000400000000000,
|
||
300000000000200000000000100100100000200000100000,
|
||
200000000000200000000000100100100000200000100000,
|
||
200000000000200000000000100100100000200000100000,
|
||
200000000000200000000100200000300000400000300000,
|
||
000000100000200000000100100000100000200000100000,
|
||
000000100000200000000100200000100000200000100000,
|
||
000000100000200000000100200000200000200000300000,
|
||
000000100000400000000000200200100100200000000000,
|
||
500000000000000000000000000000000008000000100100,
|
||
700000000000800000000000000000000000000000000000,
|
||
|
||
|
||
#END
|
||
|
||
|
||
COURSE:Hard
|
||
LEVEL:6
|
||
BALLOON:10,8
|
||
SCOREINIT:580
|
||
SCOREDIFF:150
|
||
|
||
|
||
#START
|
||
|
||
|
||
200000000000000000000000200000000000000000000000,
|
||
200000000000200000000000200000000000300000000000,
|
||
300000000000200000000000100000100000100000000000,
|
||
100000000000200000000000100000100000100000000000,
|
||
100000000000200000000000100000100000100000000000,
|
||
100000000000200000000000100000100000100000100000,
|
||
000000200000200000000000100000100000100000100000,
|
||
000000200000200000000000100000100000100000100000,
|
||
000000200000200000000000100000100000100000300000,
|
||
000000200000200000000000200000000000400000000000,
|
||
300000000000200000000000100000100000100000000000,
|
||
200000000000200000000000100000100000100000000000,
|
||
200000000000200000000000100000100000100000000000,
|
||
200000000000200000000000100000100000100000100000,
|
||
000000200000200000000000100000100000100000100000,
|
||
000000200000200000000000100000100000100000100000,
|
||
000000200000200000000000100000100000100000300000,
|
||
000000200000200000000000200000000000400000000000,
|
||
300000000000000000000000100000000000200000000000,
|
||
100000000000000000200000200000000000000000000000,
|
||
100000000000000000200000100000000000000000200000,
|
||
100000000000000000000000100000100000000000200000,
|
||
000000000000000000100000100000100000000000200000,
|
||
000000000000000000000000100000100000000000200000,
|
||
000000000000000000000000100000100000200000000000,
|
||
500000000000000000000000000000000080000000000000,
|
||
100000000000000000000000100000000000200000000000,
|
||
100000000000000000200000200000000000000000200000,
|
||
100000000000000000200000100000000000000000200000,
|
||
100000000000000000000000100000100000000000300000,
|
||
000000000000000000100000100000100000000000300000,
|
||
000000000000000000000000100000100000000000300000,
|
||
000000000000000000100000100000100000200000000000,
|
||
500000000000000000000000000000000080000000000000,
|
||
300000000000100000000000100000100000200000000000,
|
||
100000000000200000000000100000100000200000000000,
|
||
100000000000100000000000100000100000200000000000,
|
||
100000000000200000000000100000100000200000000000,
|
||
500000000000000000000080000000000000100000500000,
|
||
000000000000000000000080000000000000300000600000,
|
||
000000000000000000000080000000300000300000700000,
|
||
000000000000000000000000000000000008000000000000,
|
||
100000000000100000000000100000100000200000000000,
|
||
100000000000200000000000100000100000200000000000,
|
||
100000000000100000000000100000100000200000000000,
|
||
100000000000200000000000100000100000200000000000,
|
||
100000000000100000100000100000100000100000100000,
|
||
100000000000100000200000100000200000100000000000,
|
||
200000000000200000200000200000200000200000200000,
|
||
200000000000200000000000300000300000300000300000,
|
||
#GOGOSTART
|
||
000000000000200000100000000000100000200000100000,
|
||
000000000000200000000000100000100000100000100000,
|
||
000000000000200000100000000000100000200000100000,
|
||
000000000000200000000000100000100000100000100000,
|
||
000000000000200000100000000000100000200000100000,
|
||
000000000000100000200000000000200000100000200000,
|
||
000000000000200000000000100000100000200000000000,
|
||
100000000000200000000000100000100000100000300000,
|
||
000000000000200000100000000000100000200000100000,
|
||
000000000000200000000000100000100000100000100000,
|
||
000000000000200000100000000000100000200000100000,
|
||
000000000000200000000000100000100000000000300000,
|
||
000000000000200000100000000000100000000000300000,
|
||
000000000000300000300000000000300000000000300000,
|
||
#GOGOEND
|
||
000000000000200000000000100000100000100000000000,
|
||
100000000000200000000000100000100000100000000000,
|
||
100000000000200000000000100000100000100000000000,
|
||
100000000000200000000000100000100000100000100000,
|
||
000000200000200000000000100000100000100000100000,
|
||
000000200000200000000000100000100000100000100000,
|
||
000000200000200000000000100000100000100000300000,
|
||
000000200000200000000000200000000000400000000000,
|
||
300000000000200000000000100000100000100000000000,
|
||
200000000000200000000000100000100000100000000000,
|
||
200000000000200000000000100000100000100000000000,
|
||
200000000000200000000000100000100000100000100000,
|
||
000000200000200000000000100000100000100000100000,
|
||
000000200000200000000000100000100000100000100000,
|
||
000000200000200000000000100000100000100000300000,
|
||
000000200000200000000000200000000000400000000000,
|
||
700000000000000000000000000000000008000000100100,
|
||
100000000000000000000000000000000000000000000000,
|
||
|
||
|
||
#END
|
||
|
||
|
||
COURSE:Normal
|
||
LEVEL:3
|
||
BALLOON:5,21,13
|
||
SCOREINIT:660
|
||
SCOREDIFF:160
|
||
|
||
|
||
#START
|
||
|
||
|
||
000000000000000000000000000000000000000000000000,
|
||
000000000000000000000000000000000000000000000000,
|
||
300000000000100000000000100000000000000000000000,
|
||
100000000000100000000000100000000000000000000000,
|
||
100000000000100000000000100000000000000000000000,
|
||
100000000000000000000000100000100000000000200000,
|
||
000000200000000000000000100000100000000000200000,
|
||
000000200000000000000000100000100000000000200000,
|
||
000000200000000000000000100000100000000000300000,
|
||
000000000000200000000000200000000000200000000000,
|
||
100000000000100000000000100000000000000000000000,
|
||
100000000000100000000000100000000000000000000000,
|
||
100000000000100000000000100000000000000000000000,
|
||
100000000000000000000000100000100000000000200000,
|
||
000000200000000000000000100000100000000000200000,
|
||
000000200000000000000000100000100000000000200000,
|
||
000000200000000000000000100000100000000000500000,
|
||
000000000000000000000000000000000080000000000000,
|
||
300000000000000000000000100000000000100000000000,
|
||
100000000000000000200000200000000000000000000000,
|
||
100000000000000000100000100000000000000000100000,
|
||
100000000000000000000000200000200000000000200000,
|
||
000000000000000000000000200000200000000000200000,
|
||
000000000000000000000000200000200000000000200000,
|
||
000000000000000000000000200000000000200000000000,
|
||
500000000000000000000000000000000080000000000000,
|
||
100000000000000000000000100000000000100000000000,
|
||
100000000000000000200000200000000000000000100000,
|
||
100000000000000000100000100000000000000000100000,
|
||
100000000000000000000000200000200000000000200000,
|
||
000000000000000000000000200000200000000000200000,
|
||
000000000000000000000000200000200000000000200000,
|
||
000000000000000000000000200000000000200000000000,
|
||
500000000000000000000000000000000080000000000000,
|
||
300000000000200000000000100000000000200000000000,
|
||
100000000000200000000000100000000000000000000000,
|
||
100000000000200000000000100000000000200000000000,
|
||
100000000000200000000000100000000000000000000000,
|
||
500000000000000000000000000080000000000000500000,
|
||
000000000000000000000000000080000000000000600000,
|
||
000000000000000000000080000000000000000000700000,
|
||
000000000000000000000008000000000000000000000000,
|
||
100000000000200000000000100000000000200000000000,
|
||
100000000000200000000000100000000000000000000000,
|
||
100000000000200000000000100000000000200000000000,
|
||
100000000000200000000000100000000000000000000000,
|
||
700000000000000000000000000000000000000000000000,
|
||
000000000000000000000000000000000000000000000000,
|
||
000000000000000000000000000000000000000008000000,
|
||
000000000000000000000000000000000000000000300000,
|
||
#GOGOSTART
|
||
000000000000100000100000000000000000100000100000,
|
||
000000000000000000000000200000200000000000200000,
|
||
000000000000200000200000000000200000000000200000,
|
||
000000000000000000000000100000100000000000100000,
|
||
000000000000100000100000000000000000100000100000,
|
||
000000000000100000100000000000000000100000500000,
|
||
000000000000000000000080000000000000000000000000,
|
||
000000000000000000000000100000100000000000300000,
|
||
000000000000100000100000000000100000000000100000,
|
||
000000000000000000000000200000200000000000200000,
|
||
000000000000200000200000000000200000000000200000,
|
||
000000000000000000000000100000100000000000700000,
|
||
000000000000000000000000000000000000000000000000,
|
||
000000000000000000000000000008000000000000300000,
|
||
#GOGOEND
|
||
000000000000100000000000100000000000000000000000,
|
||
100000000000100000000000100000000000000000000000,
|
||
100000000000100000000000100000000000000000000000,
|
||
100000000000000000000000100000100000000000200000,
|
||
000000200000000000000000100000100000000000200000,
|
||
000000200000000000000000100000100000000000200000,
|
||
000000200000000000000000100000100000000000300000,
|
||
000000000000200000000000200000000000200000000000,
|
||
300000000000100000000000100000000000000000000000,
|
||
100000000000100000000000100000000000000000000000,
|
||
100000000000100000000000100000000000000000000000,
|
||
100000000000000000000000100000100000000000200000,
|
||
000000200000000000000000100000100000000000200000,
|
||
000000200000000000000000100000100000000000200000,
|
||
000000200000000000000000100000100000000000500000,
|
||
000000000000000000000000000000000080000000000000,
|
||
400000000000000000000000000000000000000000000000,
|
||
300000000000000000000000000000000000000000000000,
|
||
|
||
|
||
#END
|
||
|
||
|
||
COURSE:Easy
|
||
LEVEL:2
|
||
BALLOON:17,16,10
|
||
SCOREINIT:800
|
||
SCOREDIFF:220
|
||
|
||
|
||
#START
|
||
|
||
|
||
000000000000000000000000000000000000000000000000,
|
||
000000000000000000000000000000000000000000000000,
|
||
300000000000100000000000100000000000000000000000,
|
||
100000000000100000000000100000000000000000000000,
|
||
100000000000100000000000100000000000000000000000,
|
||
100000000000000000000000100000100000000000200000,
|
||
000000200000000000000000100000100000000000200000,
|
||
000000200000000000000000100000100000000000200000,
|
||
000000200000000000000000100000100000000000300000,
|
||
000000000000200000000000200000000000200000000000,
|
||
100000000000100000000000100000000000000000000000,
|
||
100000000000100000000000100000000000000000000000,
|
||
100000000000100000000000100000000000000000000000,
|
||
100000000000000000000000100000100000000000200000,
|
||
000000200000000000000000100000100000000000200000,
|
||
000000200000000000000000100000100000000000200000,
|
||
000000200000000000000000100000100000000000500000,
|
||
000000000000000000000000000000000080000000000000,
|
||
300000000000000000000000100000000000100000000000,
|
||
100000000000000000200000200000000000000000000000,
|
||
100000000000000000100000100000000000000000100000,
|
||
100000000000000000000000200000200000000000200000,
|
||
000000000000000000000000200000200000000000200000,
|
||
000000000000000000000000200000200000000000200000,
|
||
000000000000000000000000200000000000200000000000,
|
||
500000000000000000000000000000000080000000000000,
|
||
100000000000000000000000100000000000100000000000,
|
||
100000000000000000200000200000000000000000100000,
|
||
100000000000000000100000100000000000000000100000,
|
||
100000000000000000000000200000200000000000200000,
|
||
000000000000000000000000200000200000000000200000,
|
||
000000000000000000000000200000200000000000200000,
|
||
000000000000000000000000200000000000200000000000,
|
||
500000000000000000000000000000000080000000000000,
|
||
300000000000200000000000100000000000200000000000,
|
||
100000000000200000000000100000000000000000000000,
|
||
100000000000200000000000100000000000200000000000,
|
||
100000000000200000000000100000000000000000000000,
|
||
500000000000000000000000000080000000000000500000,
|
||
000000000000000000000000000080000000000000600000,
|
||
000000000000000000000080000000000000000000700000,
|
||
000000000000000000000008000000000000000000000000,
|
||
100000000000200000000000100000000000200000000000,
|
||
100000000000200000000000100000000000000000000000,
|
||
100000000000200000000000100000000000200000000000,
|
||
100000000000200000000000100000000000000000000000,
|
||
700000000000000000000000000000000000000000000000,
|
||
000000000000000000000000000000000000000000000000,
|
||
000000000000000000000000000000000000000008000000,
|
||
000000000000000000000000000000000000000000300000,
|
||
#GOGOSTART
|
||
000000000000100000100000000000000000100000100000,
|
||
000000000000000000000000200000200000000000200000,
|
||
000000000000200000200000000000200000000000200000,
|
||
000000000000000000000000100000100000000000100000,
|
||
000000000000100000100000000000000000100000100000,
|
||
000000000000100000100000000000000000100000500000,
|
||
000000000000000000000080000000000000000000000000,
|
||
000000000000000000000000100000100000000000300000,
|
||
000000000000100000100000000000100000000000100000,
|
||
000000000000000000000000200000200000000000200000,
|
||
000000000000200000200000000000200000000000200000,
|
||
000000000000000000000000100000100000000000700000,
|
||
000000000000000000000000000000000000000000000000,
|
||
000000000000000000000000000008000000000000300000,
|
||
#GOGOEND
|
||
000000000000100000000000100000000000000000000000,
|
||
100000000000100000000000100000000000000000000000,
|
||
100000000000100000000000100000000000000000000000,
|
||
100000000000000000000000100000100000000000200000,
|
||
000000200000000000000000100000100000000000200000,
|
||
000000200000000000000000100000100000000000200000,
|
||
000000200000000000000000100000100000000000300000,
|
||
000000000000200000000000200000000000200000000000,
|
||
300000000000100000000000100000000000000000000000,
|
||
100000000000100000000000100000000000000000000000,
|
||
100000000000100000000000100000000000000000000000,
|
||
100000000000000000000000100000100000000000200000,
|
||
000000200000000000000000100000100000000000200000,
|
||
000000200000000000000000100000100000000000200000,
|
||
000000200000000000000000100000100000000000500000,
|
||
000000000000000000000000000000000080000000000000,
|
||
400000000000000000000000000000000000000000000000,
|
||
300000000000000000000000000000000000000000000000,
|
||
|
||
|
||
#END
|
||
|