Files
ESE/01 Pop/Chiisana Tenohira/Chiisana Tenohira.tja
T
2023-06-15 19:15:39 -05:00

245 lines
5.9 KiB
Plaintext
Raw Blame History

This file contains ambiguous Unicode characters
This file contains Unicode characters that might be confused with other characters. If you think that this is intentional, you can safely ignore this warning. Use the Escape button to reveal them.
//TJADB Project
TITLE:Chiisana Tenohira
TITLEJA:小さな掌
SUBTITLE:--Aqua Timez/Joshideka! -Women’s Detective-
SUBTITLEJA:ドラマ「ジョシデカ!-女子刑事-」主題歌
BPM:84
WAVE:Chiisana Tenohira.ogg
OFFSET:-5.645
DEMOSTART:63.799
COURSE:Oni
LEVEL:5
SCOREINIT:850
SCOREDIFF:220
#START
,
22,
2022,
,
1010201110102010,
1010201110102012,
1010201110102010,
1010201110102012,
1011201010112010,
1011201000102011,
1010201110102010,
100000000000500000000000000000000008000000000000,
1010201110102010,
1010201110102012,
1010201110102010,
1010201110102012,
1011201010112010,
1011201122112011,
1010201110102010,
100000000000100000000000500000000000000000000008,
#MEASURE 2/4
00000011,
#GOGOSTART
#MEASURE 4/4
1010201101020101,
1021012010112011,
1010201101020101,
1021011210002211,
1010201101020101,
1021010100000011,
1011010111012101,
0101010110102211,
1010201101020101,
1021010100112011,
1010201101020101,
1021011210000011,
1010201101020101,
1021010100002211,
100000100100000200001000100010002000100010002000,
500000000000000000000000000008000000000000200000,
#GOGOEND
2000200020222020,
200000000000500000000000000000000000000000000008,
#END
COURSE:Hard
LEVEL:4
BALLOON:10
SCOREINIT:860
SCOREDIFF:230
#START
000000000000000000000000000000000000000000000000,
200000000000000000000000200000000000000000000000,
200000000000000000000000200000000000200000000000,
000000000000000000000000000000000000000000000000,
100000100000200000000000100000100000200000100000,
100000000000200000000000100000100000200000000000,
100000100000200000000000100000100000200000100000,
100000100000200000000000100000100000200000000000,
100000100000200000100000100000100000200000100000,
100000000100100000200000000000100000200000000000,
100000100000200000000000100000100000200000100000,
100000000000500000000000000000800000000000000000,
100000100000200000000000100000100000200000100000,
100000000000200000000000100000100000200000000000,
100000100000200000000000100000100000200000100000,
100000100000200000000000100000100000200000000000,
100000100000200000100000100000100000200000100000,
100000000100200000100000000000100000200000000000,
100000100000200000000000100000100000200000100000,
100000000000100000000000700000000000000000000000,
#MEASURE 2/4
000000000800000000000000,
#GOGOSTART
#MEASURE 4/4
100000100000200000100100100000100000200000100000,
100000100000200000100000100100100000200000000000,
100000100000200000100100100000100000200000100000,
100000100000200000100000100100100000200000000000,
100000100000200000000000100000100000200000000000,
100000100000200000100000100100100000200000100000,
100000100000200000000000100000100000200000000000,
100000100000200000100000100000100000200000100100,
100000100000200000100100100000100000200000100000,
100000100000200000100000100100100000200000000000,
100000100000200000100100100000100000200000100000,
100000100000200000100000100100100000200000000000,
100000100000200000000000100000100000200000000000,
100000100000200000100000100100100000200000100000,
100000100000200000100000100000100000200000100000,
500000000000000000000000800000000000000000200000,
#GOGOEND
200000000000200000000000200000200000200000000000,
200000000000500000000000000000000000000000000800,
#END
COURSE:Normal
LEVEL:3
BALLOON:8
SCOREINIT:1070
SCOREDIFF:340
#START
,
22,
2022,
,
10201110,
1210,
1212,
10022000,
1212,
10110000,
1212,
500000000000000000000000000008000000000000000000,
10201110,
1210,
1212,
10022000,
1212,
10110000,
1212,
1170,
#MEASURE 2/4
08,
#GOGOSTART
#MEASURE 4/4
11101020,
11104000,
11101020,
11104000,
22202020,
11103000,
1212,
11103000,
11101020,
11104000,
11101020,
11104000,
22202020,
11103000,
1212,
500000000000000000000000000008000000000000000000,
#GOGOEND
22,
500000000000000000000000000000000000000000000008,
#END
COURSE:Easy
LEVEL:3
BALLOON:4
SCOREINIT:1000
SCOREDIFF:350
#START
000000000000000000000000000000000000000000000000,
200000000000000000000000200000000000000000000000,
200000000000000000000000200000000000200000000000,
000000000000000000000000000000000000000000000000,
100000000000200000000000100000000000000000000000,
100000000000200000000000100000000000000000000000,
100000000000100000000000100000000000100000000000,
100000000000000000000000200000000000200000000000,
100000000000000000000000100000000000000000000000,
100000000000100000000000000000000000000000000000,
100000000000100000000000100000000000100000000000,
500000000000000000000000800000000000000000000000,
100000000000200000000000100000000000000000000000,
100000000000200000000000100000000000000000000000,
100000000000100000000000100000000000100000000000,
100000000000000000000000200000000000200000000000,
100000000000000000000000100000000000000000000000,
100000000000100000000000000000000000000000000000,
100000000000100000000000100000000000100000000000,
100000000000000000000000700000000000000000000000,
#MEASURE 2/4
000000800000000000000000,
#GOGOSTART
#MEASURE 4/4
100000000000100000000000100000000000100000000000,
100000000000000000000000200000000000000000000000,
100000000000100000000000100000000000100000000000,
100000000000000000000000200000000000000000000000,
100000000000200000000000100000000000200000000000,
100000000000000000000000100000000000000000000000,
100000000000100000000000100000000000100000000000,
100000000000000000000000100000000000000000000000,
100000000000100000000000100000000000100000000000,
100000000000100000000000200000000000000000000000,
100000000000100000000000100000000000100000000000,
100000000000100000000000200000000000000000000000,
100000000000200000000000100000000000200000000000,
100000000000200000000000100000000000000000000000,
300000000000300000000000300000000000300000000000,
600000000000000000000000800000000000000000000000,
#GOGOEND
200000000000000000000000200000000000000000000000,
500000000000000000000000000000000000000000000800,
#END