Files
ESE/01 Pop/Christmas Song/Christmas Song.tja
T
2023-06-15 19:15:39 -05:00

324 lines
4.9 KiB
Plaintext
Raw Blame History

This file contains ambiguous Unicode characters
This file contains Unicode characters that might be confused with other characters. If you think that this is intentional, you can safely ignore this warning. Use the Escape button to reveal them.
//TJADB Project
TITLE:Christmas Song
TITLEJA:クリスマスソング
SUBTITLE:--back number/5→9 ~Watashi ni Koi Shita Oterasan~
SUBTITLEJA:back number
BPM:77
WAVE:Christmas Song.ogg
OFFSET:-11.160
DEMOSTART:74.266
COURSE:Oni
LEVEL:7
SCOREINIT:660
SCOREDIFF:183
#START
#SCROLL 1.49
200000200002200200200000,
#SCROLL 1.5
#BPMCHANGE 76.65
200000200002200200200000,
#SCROLL 1.49
#BPMCHANGE 77.35
200200200202200200200202,
#SCROLL 1.5
#BPMCHANGE 77
102100102101100100122202,
#GOGOSTART
#SCROLL 1.49
#BPMCHANGE 77.14
100100200201101100200202,
#SCROLL 1.5
#BPMCHANGE 76.86
100100200201101100200202,
#SCROLL 1.49
#BPMCHANGE 77.26
100100200201101100200202,
#BPMCHANGE 77.01
101200101201100000500000,
#BARLINEOFF
#MEASURE 2/4
#BPMCHANGE 76.46
000000000000000008000000,
#GOGOEND
#BARLINEON
#MEASURE 4/4
#SCROLL 0.99
#BPMCHANGE 76.88
200000200002202200200202,
#BPMCHANGE 76.76
200000200002202200200000,
#SCROLL 0.98
#BPMCHANGE 77.01
200000200002202200200202,
#SCROLL 0.99
#BPMCHANGE 76.97
200000200002202200200000,
200000200002202200200202,
#SCROLL 0.98
#BPMCHANGE 77.41
200000200002202200200202,
#SCROLL 0.99
#BPMCHANGE 76.66
102200200000102200200000,
#SCROLL 0.98
#BPMCHANGE 77.34
100200100200102201100100,
#BPMCHANGE 77
100100200201101101200202,
#BPMCHANGE 77.49
100100200201101100200200,
#SCROLL 0.99
#BPMCHANGE 76.51
100100202201101101200202,
#BPMCHANGE 77
102202102202101100200200,
#GOGOSTART
#SCROLL 1.49
102202102202102100201101,
202202102202102100201101,
202202102202102100201101,
202100202100202101222100,
100100202201101100200101,
#BPMCHANGE 77.34
201111201111201101200101,
#BPMCHANGE 77.03
100100202202101101002002,
#SCROLL 1.5
#BPMCHANGE 76.92
101111201111201111211211,
#BPMCHANGE 76.86
202202102202100100201101,
#BPMCHANGE 76.63
202202102202100100201101,
#SCROLL 1.49
#BPMCHANGE 77.22
202202102202102100201101,
202100202100202101222101,
#SCROLL 1.5
#BPMCHANGE 76.77
100102200200101101002002,
#SCROLL 1.49
#BPMCHANGE 77
101111201111201101200202,
#BPMCHANGE 77.25
101202101202101101202101,
#SCROLL 1.5
#BPMCHANGE 76.87
201111201111211211211200,
#GOGOEND
#MEASURE 2/4
#SCROLL 1.49
#BPMCHANGE 77.26
102101201222,
#GOGOSTART
#SCROLL 1.5
#BPMCHANGE 76.75
1,
#END
COURSE:Hard
LEVEL:5
SCOREINIT:840
SCOREDIFF:200
#START
#SCROLL 1.5
100000200001100100200000,
100000200001100100200000,
10201120,
100100200201100100111100,//4
#GOGOSTART
100100100001100100200000,
100100100001100100200000,
11221122,
11221050,
#BARLINEOFF
#MEASURE 2/4
000000000000000008000000,//9
#BARLINEON
#MEASURE 4/4
#GOGOEND
0202,
000000200002200200200000,
0202,
000000200002200200200000,
100000200001100100200000,
100000200001100100200000,
101100100000101100100000,
100000100000101100100000,
100100200001100100200000,
100100200001100100200000,
100100200001000100200000,
21213300,//21
#GOGOSTART
100100101100100100100000,
100100101100100100100000,
100100200001100100200000,
100100200001100100200200,
100100101100101100100000,
111100111100100100200000,
100100200001100100200000,
111100111100100100200111,
100100101100100100100000,
100100101100100100100000,
100100200001100100200000,
100100200001100100200200,
100101100100100100200000,
111100111100100100200000,
100100200001100100200000,
111100111100100100101000,//37
#MEASURE 2/4
#GOGOEND
100101200200,//38
#MEASURE 4/4
#GOGOSTART
3,
#END
COURSE:Normal
LEVEL:4
#START
#SCROLL 1.5
1202,
1202,
10201120,
11111011,//4
#GOGOSTART
10101120,
10101120,
11101110,
11111050,
#BARLINEOFF
#MEASURE 2/4
000000000000000008000000,//9
#BARLINEON
#MEASURE 4/4
#GOGOEND
0202,
0202,
0202,
0202,
1202,
1202,
10201120,
10201122,
10202120,
10202120,
10202120,
10103300,//21
#GOGOSTART
10101120,
10101120,
10101120,
100000000000100000500000000000000008000000000000,
10101120,
10101120,
10201120,
200000100000200000100000500000000000000008000000,
10201120,
10201120,
10201120,
100000000000100000500000000000000008000000000000,
10201120,
10201120,
10201120,
21212211,//37
#MEASURE 2/4
#GOGOEND
1011,//38
#MEASURE 4/4
#GOGOSTART
3,
#END
COURSE:Easy
LEVEL:3
BALLOON:9
#START
#SCROLL 1.5
10001100,
10001100,
10101110,
11101010,//4
#GOGOSTART
10001100,
10001100,
11101110,
11101050,
#BARLINEOFF
#MEASURE 2/4
000000000000000008000000,//9
#BARLINEON
#MEASURE 4/4
#GOGOEND
0202,
0202,
0202,
0222,
0202,
0202,
0202,
0222,
11001010,
11001010,
11001010,
10103300,//21
#GOGOSTART
1120,
1120,
1120,
100000000000100000500000000000000008000000000000,
10101100,
100000000000100000000000500000000008000000000000,
1120,
100000000000100000000000500000000008000000000000,
1120,
1120,
1120,
100000000000100000500000000000000008000000000000,
10101100,
100000000000100000000000500000000008000000000000,
1111,
1170,//37
#MEASURE 2/4
#GOGOEND
8,//38
#MEASURE 4/4
#GOGOSTART
3,
#END