Files
ESE/01 Pop/Dance My Generation/Dance My Generation.tja
T
2023-06-15 19:15:39 -05:00

467 lines
5.7 KiB
Plaintext

//TJADB Project
TITLE:Dance My Generation
TITLEJA:Dance My Generation
SUBTITLE:--Golden Bomber
SUBTITLEJA:ゴールデンボンバー
BPM:133
WAVE:Dance My Generation.ogg
OFFSET:-1.972
DEMOSTART:68.738
COURSE:Edit
LEVEL:7
STYLE:Double
SCOREINIT:1500
SCOREDIFF:585
#START P1
1,
11,
1101,
100000000000100000000000500000000000000008000000,
#GOGOSTART
3032,
1122,
3230,
1122,
3032,
1122,
3230,
1122,
#GOGOEND
10200220,
10201120,
10201110,
2020201100004000,
02201120,
2020201100004000,
11200220,
1010110220110000,
10221020,
10201120,
10201110,
2020201100004000,
11221020,
1010102100004000,
11221020,
10200220,
00000102,
01021120,
11221020,
1200,
01021120,
1200,
01203100,
3344,
3003004040000000,
#GOGOSTART
1000100010222000,
0002,
1000100010222000,
0002,
1000100010222000,
0002,
1000100010222000,
0002,
3,
#END
#START P2
1,
11,
1101,
100000000000100000000000500000000000000008000000,
#GOGOSTART
3230,
,
3032,
,
3230,
,
3032,
,
#GOGOEND
10201120,
10200220,
10202220,
1010102200004000,
11202200,
1010102200004000,
02201120,
2020220110220000,
10201120,
10221020,
10202220,
1010102200004000,
10201122,
1010101200004000,
10201122,
1000200002002000,
11221020,
1200,
00000102,
01021120,
1200,
01021120,
31000120,
4433,
3003004040000000,
#GOGOSTART
0002,
1000100010222000,
0002,
1000100010222000,
0002,
1000100010222000,
0002,
1000100010222000,
3,
#END
STYLE:Single
BALLOON:15
SCOREINIT:880
SCOREDIFF:258
#START
1000000000000011,
0101011110001000,
1101,
0101011101010101,
#GOGOSTART
1011220020020022,
0011022010020010,
0011220020020022,
0011022010020010,
0011220020020022,
0011022010020010,
1022110011022010,
1022110011022010,
#GOGOEND
1020102010210120,
1020102010210000,
1020102010210102,
1020102102002000,
0010201020120202,
1020102100202000,
0010201020120202,
1022102110210000,
1020102010210120,
1020102010210000,
1020102010210102,
1020102102002200,
0010201020120202,
1020102100202000,
0010201020020027,
0008,
1000001010020020,
1001001010222000,
1000001010020020,
3434,
3000001010020020,
1001001010222030,
3021021110403040,
100200100000100200100000300000400000600008000000,
3021021030000000,
#GOGOSTART
3011202110120210,
3020202012020030,
3011202110120210,
3022202010210000,
3011202110120210,
3020202012020030,
3000000030030030,
000000600000000000000000000000000000000008000000,
#END
COURSE:Oni
LEVEL:7
BALLOON:15
SCOREINIT:880
SCOREDIFF:258
#START
1000000000000011,
0101011110001000,
1101,
0101011101010101,
#GOGOSTART
1011220020020022,
0011022010020010,
0011220020020022,
0011022010020010,
0011220020020022,
0011022010020010,
1022110011022010,
1022110011022010,
#GOGOEND
1020102010210120,
1020102010210000,
1020102010210102,
1020102102002000,
0010201020120202,
1020102100202000,
0010201020120202,
1022102110210000,
1020102010210120,
1020102010210000,
1020102010210102,
1020102102002200,
0010201020120202,
1020102100202000,
0010201020020027,
0008,
1000001010020020,
1001001010222000,
1000001010020020,
3434,
3000001010020020,
1001001010222030,
3021021110403040,
100200100000100200100000300000400000600008000000,
3021021030000000,
#GOGOSTART
3011202110120210,
3020202012020030,
3011202110120210,
3022202010210000,
3011202110120210,
3020202012020030,
3000000030030030,
000000600000000000000000000000000000000008000000,
#END
COURSE:Hard
LEVEL:6
BALLOON:8,9
SCOREINIT:1000
SCOREDIFF:315
#START
1,
11,
1101,
1110,
#GOGOSTART
1000110010010010,
0011011020020020,
0010110010010010,
0011011020020020,
0010110010010010,
0011011020020020,
500000000000000000000000000008000000000000000000,
500000000000000000000000000008000000000000000000,
#GOGOEND
1010101010110000,
1010101010110000,
1010100010110000,
1010101100202000,
0010101010110000,
1010101100202000,
0010101010110110,
7008,
1010101010110000,
1010101010110000,
1010100010110000,
1010101100004000,
0010101010110000,
1010101100202000,
0010101010010017,
0008,
10011020,
10011220,
10011020,
3434,
30011020,
10011220,
30003434,
1110111030306000,
000000000000000000000008000000000000000000000000,
#GOGOSTART
3000300030030030,
0020200022202000,
3000300030030030,
0020200020220000,
3000300030030030,
0020200022202000,
3000000030030030,
000000600000000000000000000000000000000008000000,
#END
COURSE:Normal
LEVEL:3
BALLOON:5,5
SCOREINIT:910
SCOREDIFF:330
#START
1,
11,
1101,
1110,
#GOGOSTART
1110,
10111000,
1110,
10111000,
1110,
10111000,
500000000000000000000000000008000000000000000000,
500000000000000000000000000008000000000000000000,
#GOGOEND
1112,
1110,
1112,
1110,
11101000,
11101000,
11101110,
7008,
1112,
1110,
1112,
1110,
11101000,
11101000,
11101110,
7008,
10011000,
10011000,
10011000,
1212,
10011000,
10011000,
3033,
33303360,
000000000000000000000008000000000000000000000000,
#GOGOSTART
3333,
11101110,
3333,
22202220,
3333,
11102220,
3033,
600000000000000000000000000000000000000000000008,
#END
COURSE:Easy
LEVEL:2
BALLOON:4,4
SCOREINIT:870
SCOREDIFF:540
#START
1,
11,
1100,
1110,
#GOGOSTART
11,
1110,
22,
1110,
11,
1110,
500000000000000000000000000008000000000000000000,
500000000000000000000000000008000000000000000000,
#GOGOEND
1011,
12,
1011,
12,
1110,
1110,
11,
7008,
1011,
12,
1011,
12,
1110,
1110,
11,
7008,
12,
1110,
12,
1110,
12,
1110,
33,
3336,
000000000000000000000008000000000000000000000000,
#GOGOSTART
3330,
22,
3330,
22,
3330,
22,
3033,
600000000000000000000000000000000000000000000008,
#END