Files
ESE/01 Pop/Dejavina -Japanese Version-/Dejavina -Japanese Version-.tja
T
2023-06-15 19:00:23 -05:00

287 lines
3.5 KiB
Plaintext

//TJADB Project
TITLE:Dejavina -Japanese Version-
TITLEJA:Dejavina (Japanese ver.)
SUBTITLE:--Recitalz/Zenryoku! Datsuryoku Times
BPM:128
WAVE:Dejavina -Japanese Version-.ogg
OFFSET:-2.000
DEMOSTART:53.766
COURSE:Oni
LEVEL:8
BALLOON:13
SCOREINIT:820
SCOREDIFF:230
#START
10000202,
00000202,
00000202,
00020020,
1202102212201200,
1202102212201200,
1212101212101210,
100100100100100100100100500000000000000008000000,
1010201011012010,
0020402220102020,
1010201012012010,
0000202220102020,
1010201011012020,
1202200000202011,
1010202011102222,
11210120,
1010210111020210,
0010210120201020,
1010200220102010,
1022210020202100,
1001202101102012,
0011202012021022,
1010202011102022,
11201221,
1002001002002200,
1202120212021000,
1202120212021207,
0083,
#GOGOSTART
1020201022100022,
1000221020121210,
1020220210122010,
1020220110121020,
1020201022100022,
1000221020121210,
1011202011102010,
1020221220221000,
1010221020121210,
2210210210303030,
0010221020121210,
2210121022121202,
1010221020121210,
2210210210303030,
10102210102212
#GOGOEND
10,
0010110101022000,
#BPMCHANGE 123.339
#SCROLL 1.03
01
#BPMCHANGE 128
#SCROLL 1
221001,
22100000,
#END
COURSE:Hard
LEVEL:5
BALLOON:10
SCOREINIT:890
SCOREDIFF:275
#START
10000202,
00000202,
00000202,
00020020,
1111,
1111,
11111110,
100100100000100100100000500000000000000008000000,
1000200011022010,
00401120,
1000200011022010,
00221220,
1000200011022010,
1102200000102000,
11201120,
11210120,
1010200011020020,
01201212,
11201121,
11202220,
1001002011002002,
0020202022020000,
11201120,
11201221,
500000000000000000000000000000000008000000000000,
1001010101010000,
1002020202020207,
0083,
#GOGOSTART
1000200011100011,
1000111000300030,
02201221,
12201122,
1000200011100011,
1000111000300030,
00201125,
000000000008000000100000200000200000100000000000,
11221011,
22100303,
01221011,
2020102022020201,
11221011,
22100303,
1122102
#GOGOEND
1,
0010100101022000,
#BPMCHANGE 123.339
#SCROLL 1.03
01
#BPMCHANGE 128
#SCROLL 1
221001,
22100000,
#END
COURSE:Normal
LEVEL:4
BALLOON:7,8
SCOREINIT:950
SCOREDIFF:338
#START
10000202,
00000202,
00000202,
00020020,
1111,
1110,
11101110,
500000000000000000000000000000000000000008000000,
1000200010010010,
0412,
1000200010010010,
00002220,
1210,
10000220,
11201120,
10200220,
1000200010010010,
0012,
11101020,
11102220,
1001000010001000,
00222000,
11201120,
11102020,
500000000000000000000000000000000008000000000000,
11,
1000000200020007,
0083,
#GOGOSTART
10002102,
10210303,
00201101,
1102,
10002102,
10210303,
00101105,
000000000008000000000000200000200000200000000000,
10222010,
22200303,
00222010,
22202000,
10222010,
22200303,
1022201
#GOGOEND
1,
07000080,
#BPMCHANGE 123.339
#SCROLL 1.03
02
#BPMCHANGE 128
#SCROLL 1
222002,
22200000,
#END
COURSE:Easy
LEVEL:3
BALLOON:4,6
SCOREINIT:1280
SCOREDIFF:968
#START
1,
0,
0,
0,
11,
11,
1111,
500000000000000000000000000008000000000000000000,
11,
0022,
11,
0022,
11,
0002,
11,
1100,
11,
0022,
11,
2200,
11,
0220,
11,
1100,
500000000000000000000000000008000000000000000000,
11,
11,
78,
#GOGOSTART
10001001,
0100,
1110,
1100,
10001001,
0100,
10101005,
000000000008000000000000000000000000000000000000,
1220,
2200,
1220,
2200,
1220,
2200,
1020200
#GOGOEND
0,
07000080,
#BPMCHANGE 123.339
#SCROLL 1.03
0
#BPMCHANGE 128
#SCROLL 1
220,
2200,
#END