243 lines
9.5 KiB
Plaintext
243 lines
9.5 KiB
Plaintext
//TJADB Project
|
|
TITLE:Do it! Now
|
|
TITLEJA:Do it! Now
|
|
SUBTITLE:--Morning Musume
|
|
BPM:96
|
|
WAVE:Do it! Now.ogg
|
|
OFFSET:-2.816
|
|
DEMOSTART:10.276
|
|
|
|
COURSE:Oni
|
|
LEVEL:4
|
|
|
|
|
|
#START
|
|
|
|
|
|
000000000000000000000000000000000000000000000000,
|
|
000000000000000000000000000000000000000000000000,
|
|
000000000000000000000000000000100000100000000000,
|
|
100000100100000200000000100000100100000200000000,
|
|
100000100100000000100000100000100100000000100100,
|
|
100000200100000200000100000000100000100000200000,
|
|
100000100000100100000100000000000000100000100000,
|
|
000000300000000000000000000000000000000000000000,
|
|
100100100100100000100100100100100000200000000000,
|
|
100100100100100000100100100100100000200000000000,
|
|
100100100100100000100100100100100000200000000000,
|
|
100100100100100000100100100100100000200000000000,
|
|
100000100000100100000100000000100000100000000000,
|
|
100000100000100100000100000200200200200000000000,
|
|
100000100000100100000100000000100000100000000000,
|
|
100000100000100100000100000000000000100000000000,
|
|
100000000000000000100100000000100000100000200000,
|
|
100000100000100100000100000000000000200000000000,
|
|
100000100100000000200000100000100100000000200000,
|
|
300000000000000000000000000000000000000000000000,
|
|
100000100000100100000100000000100000100000200000,
|
|
100000100000100100000100000200200200200000000000,
|
|
100000100000100100000100000000100000100000200000,
|
|
100000100000100100000100000000000000100000000000,
|
|
100000000000000000100100000000100000100000100000,
|
|
000000100100100100000000100000000000100000000000,
|
|
100000100100000000200000100000000000200000000000,
|
|
100000000000000000100100000000000000000000000000,
|
|
000000000000100000100000100000000000100000100000,
|
|
100000000200000000100000100000200000100000000300,
|
|
000000000000000000000000000000100000100000100000,
|
|
200000000200000000200000100000100000100000100100,
|
|
000000000000000000000000000000000000000000100100,
|
|
100000100100000100000100000000200200000000100100,
|
|
100000100100000100000200100000200100000200000100,
|
|
000000000000000000100100100000100000100100100000,
|
|
100000000100000000100000000000200200200000200000,
|
|
100000100100000200000200100000100100000200000200,
|
|
100000100100000000200000100000100100000000100100,
|
|
100000200100000200000100000000200000100000200000,
|
|
100000100000100100000100100000000000200000200000,
|
|
100000100100000200000200100000100100000200000200,
|
|
100000100100000000200000100000100100000000100100,
|
|
100000200100000200000100000000200000100000200000,
|
|
100000100000100100000100100000000000100000100000,
|
|
000000300000000000000000000000000000000000000000,
|
|
|
|
|
|
#END
|
|
|
|
|
|
COURSE:Hard
|
|
LEVEL:3
|
|
SCOREINIT:690
|
|
SCOREDIFF:170
|
|
|
|
|
|
#START
|
|
|
|
|
|
000000000000000000000000000000000000000000000000,
|
|
000000000000000000000000000000000000000000000000,
|
|
000000000000000000000000000000100000100000000000,
|
|
100000100100000200000000100000100100000200000000,
|
|
100000100100000000100000100000100100000000100100,
|
|
100000100100000100000100000000100000100000200000,
|
|
100000100000100100000100000000000000100000100000,
|
|
000000300000000000000000000000000000000000000000,
|
|
100100100100100000100100100100100000000000000000,
|
|
100100100100100000100100100100100000000000000000,
|
|
100100100100100000100100100100100000000000000000,
|
|
100100100100100000100100100100100000000000000000,
|
|
100000100000100100000100000000100000100000000000,
|
|
100000100000100100000100000000000000000000000000,
|
|
100000100000100100000100000000100000100000000000,
|
|
100000100000100100000100000000000000100000000000,
|
|
100000000000000000100100000000100000100000000000,
|
|
100000100000100100000100000000000000200000000000,
|
|
100000100100000000200000100000100100000000200000,
|
|
100000000000000000000000000000000000000000000000,
|
|
100000100000100100000100000000100000100000200000,
|
|
100000100000100100000100000000000000000000000000,
|
|
100000100000100100000100000000100000100000200000,
|
|
100000100000100100000100000000000000100000000000,
|
|
100000000000000000100100000000100000100000100000,
|
|
000000100100100100000000100000000000100000000000,
|
|
100000100100000000100000100000000000100000000000,
|
|
100000000000000000100100000000000000000000000000,
|
|
000000000000100000100000100000000000100000100000,
|
|
100000000200000000100000100000100000100000000300,
|
|
000000000000000000000000000000100000100000100000,
|
|
200000000200000000200000100000100000100000100100,
|
|
000000000000000000000000000000000000000000100100,
|
|
100000100100000100000100000000200200000000100100,
|
|
100000100100000100000100100000100100000100000100,
|
|
000000000000000000100000100000100000100000100000,
|
|
100000000100000000100000000000200000200000200000,
|
|
100000100100000200000000100000100100000200000000,
|
|
100000100100000000200000100000100100000000100100,
|
|
100000100100000100000100000000100000100000000000,
|
|
100000100000100100000100100000000000200000200000,
|
|
100000100100000200000000100000100100000200000000,
|
|
100000100100000000200000100000100100000000100100,
|
|
100000100100000100000100000000100000100000000000,
|
|
100000100000100100000100100000000000100000100000,
|
|
000000300000000000000000000000000000000000000000,
|
|
|
|
|
|
#END
|
|
|
|
|
|
COURSE:Normal
|
|
LEVEL:4
|
|
|
|
|
|
#START
|
|
|
|
|
|
000000000000000000000000000000000000000000000000,
|
|
100000000000000000000000000000000000000000000000,
|
|
100000000000000000000000000000000000000000000000,
|
|
100000100000100000000000100000000000000000000000,
|
|
100000100000100000000000100000000000000000000000,
|
|
100000100000100000000000100000000000000000000000,
|
|
100000100000100000000000100000000000000000000000,
|
|
300000000000000000000000000000000000000000000000,
|
|
100000000000100000000000100000000000000000000000,
|
|
100000000000100000000000100000000000000000000000,
|
|
100000000000100000000000100000000000000000000000,
|
|
100000000000100000000000100000000000000000000000,
|
|
100000100000000000000000100000000000100000000000,
|
|
100000100000000000000000100000000000000000000000,
|
|
100000100000000000000000100000000000100000000000,
|
|
100000100000000000000000100000000000000000000000,
|
|
100000000000000000000000100000000000000000000000,
|
|
100000000000000000000000100000000000000000000000,
|
|
100000100000000000000000100000100000000000000000,
|
|
300000000000000000000000000000000000000000000000,
|
|
100000100000000000000000100000000000100000000000,
|
|
100000100000000000000000100000000000000000000000,
|
|
100000100000000000000000100000000000100000000000,
|
|
100000100000000000000000100000000000000000000000,
|
|
100000000000000000000000100000000000000000000000,
|
|
100000000000000000000000100000000000000000000000,
|
|
100000100000000000000000100000100000000000000000,
|
|
100000100000100000000000300000000000000000000000,
|
|
000000000000100000100000100000000000200000000000,
|
|
100000100000000000000000100000000000000000000000,
|
|
100000100000000000000000100000000000000000000000,
|
|
100000100000000000000000100000000000000000000000,
|
|
100000100000000000000000100000000000000000000000,
|
|
100000000000000000000000200000000000000000000000,
|
|
100000000000000000000000200000000000000000000000,
|
|
100000000000000000100000100000100000100000100000,
|
|
100000000100000000100000000000100000200000200000,
|
|
100000100000000000000000100000100000000000000000,
|
|
100000100000000000000000100000100000000000200000,
|
|
200000000200000200000000200000000000000000000000,
|
|
100000100000100000000000100000000000200000200000,
|
|
100000000100000100000000100000000100000100000000,
|
|
100000000100000000000000100000000000000000100000,
|
|
100000000100000000000000100000000000000000000000,
|
|
100000000000100000000000100000000000100000100000,
|
|
000000100000000000000000000000000000000000000000,
|
|
|
|
|
|
#END
|
|
|
|
|
|
COURSE:Easy
|
|
LEVEL:1
|
|
|
|
|
|
#START
|
|
|
|
|
|
000000000000000000000000000000000000000000000000,
|
|
100000000000000000000000000000000000000000000000,
|
|
100000000000000000000000000000000000000000000000,
|
|
100000000000000000000000100000000000000000000000,
|
|
100000000000100000000000100000000000000000000000,
|
|
100000000000000000000000100000000000000000000000,
|
|
100000000000100000000000100000000000000000000000,
|
|
300000000000000000000000000000000000000000000000,
|
|
100000000000100000000000100000000000000000000000,
|
|
100000000000100000000000100000000000000000000000,
|
|
100000000000100000000000100000000000000000000000,
|
|
100000000000100000000000100000000000000000000000,
|
|
100000000000000000000000100000000000100000000000,
|
|
100000000000000000000000100000000000000000000000,
|
|
100000000000000000000000100000000000100000000000,
|
|
100000000000000000000000100000000000000000000000,
|
|
500000000000000000000000000080000000000000000000,
|
|
100000000000100000000000100000000000000000000000,
|
|
100000000000000000000000100000000000000000000000,
|
|
300000000000000000000000000000000000000000000000,
|
|
100000000000000000000000100000000000100000000000,
|
|
100000000000000000000000100000000000000000000000,
|
|
100000000000000000000000100000000000100000000000,
|
|
100000000000000000000000100000000000000000000000,
|
|
100000000000000000000000100000000000000000000000,
|
|
100000000000000000000000100000000000000000000000,
|
|
100000000000100000000000100000000000000000000000,
|
|
500000000000000000000000000000000080000000000000,
|
|
000000000000100000000000100000000000000000000000,
|
|
100000000000100000000000100000000000000000000000,
|
|
200000000000000000000000000000000000000000000000,
|
|
100000000000100000000000100000000000000000000000,
|
|
200000000000000000000000000000000000000000000000,
|
|
100000100000000000000000100000100000000000000000,
|
|
100000100000000000000000100000100000000000000000,
|
|
100000000000000000000000100000000000100000000000,
|
|
100000000000000000300000000000000000000000000000,
|
|
100000100000000000000000200000000000000000000000,
|
|
100000100000000000000000200000000000000000000000,
|
|
100000100000000000000000200000000000000000000000,
|
|
100000000000100000000000300000000000000000000000,
|
|
100000100000000000000000200000000000000000000000,
|
|
100000100000000000000000200000000000000000000000,
|
|
100000100000000000000000200000000000000000000000,
|
|
100000100000000000000000200000000000000000000000,
|
|
300000000000000000000000000000000000000000000000,
|
|
|
|
|
|
#END
|
|
|