842 lines
14 KiB
Plaintext
842 lines
14 KiB
Plaintext
//TJADB Project
|
|
TITLE:Donut Hole
|
|
TITLEJA:ドーナツホール
|
|
SUBTITLE:--Kenshi Yonezu
|
|
SUBTITLEJA:米津玄師
|
|
BPM:255.41
|
|
WAVE:Donut Hole.ogg
|
|
OFFSET:-2.060
|
|
DEMOSTART:57.072
|
|
|
|
COURSE:Oni
|
|
LEVEL:8
|
|
SCOREINIT:400
|
|
SCOREDIFF:100
|
|
|
|
|
|
#START
|
|
|
|
|
|
100000200000200000100000100000200000200000100000,
|
|
#BPMCHANGE 248.68
|
|
#SCROLL 1.02
|
|
200000200000100000200000200000100000200000000000,
|
|
#BPMCHANGE 252
|
|
#SCROLL 1.01
|
|
100000100000200000100000100000200000100000100000,
|
|
#BPMCHANGE 255.26
|
|
#SCROLL 1
|
|
200000100000100000200000100000100000200000000000,
|
|
#BPMCHANGE 248.82
|
|
#SCROLL 1.02
|
|
100000200000200000100000100000200000200000100000,
|
|
#BPMCHANGE 252
|
|
#SCROLL 1.01
|
|
200000200000100000200000200000100000200000000000,
|
|
#BPMCHANGE 253.93
|
|
#SCROLL 1
|
|
100000100000200000100000100000200000100000100000,
|
|
#BPMCHANGE 252.58
|
|
#SCROLL 1.01
|
|
200000100000100000200000100000100000000000100000,
|
|
#BPMCHANGE 253.45
|
|
#SCROLL 1
|
|
000000100000200000200000100000000000200000200000,
|
|
#BPMCHANGE 251.33
|
|
#SCROLL 1.01
|
|
100000000000100000100000000000100000200000000000,
|
|
#BPMCHANGE 253.64
|
|
#SCROLL 1
|
|
100000000000200000000000100000100000200000200000,
|
|
#BPMCHANGE 250.85
|
|
#SCROLL 1.01
|
|
100000000000200000100000000000100000200000100000,
|
|
#BPMCHANGE 252.58
|
|
000000100000200000200000100000000000200000200000,
|
|
#BPMCHANGE 247.75
|
|
#SCROLL 1.03
|
|
100000000000100000100000000000100000200000000000,
|
|
#BPMCHANGE 255.41
|
|
#SCROLL 1
|
|
100000000000200000000000100000100000200000200000,
|
|
#BPMCHANGE 248.68
|
|
#SCROLL 1.02
|
|
100000000000200000100000000000100000200000000000,
|
|
#BPMCHANGE 254.03
|
|
#SCROLL 1
|
|
100000000000200000000000100000000000200000200000,
|
|
#BPMCHANGE 250
|
|
#SCROLL 1.02
|
|
100000000000200000000000100000000000200000000000,
|
|
#BPMCHANGE 252
|
|
#SCROLL 1.01
|
|
000000100000200000000000100000000000200000200000,
|
|
100000100000200000200000100000000000200000100000,
|
|
000000100000200000200000100000000000200000200000,
|
|
100000000000100000100000000000100000200000000000,
|
|
#BPMCHANGE 255.41
|
|
#SCROLL 1
|
|
100000000000200000000000100000100000200000200000,
|
|
#BPMCHANGE 250.95
|
|
#SCROLL 1.01
|
|
300000000000400000000000300000000000000000100000,
|
|
#BPMCHANGE 252.87
|
|
000000100000200000200000100000000000200000200000,
|
|
#BPMCHANGE 248.87
|
|
#SCROLL 1.02
|
|
100000000000100000100000000000100000200000000000,
|
|
#BPMCHANGE 259.82
|
|
#SCROLL 0.98
|
|
100000000000200000000000100000100000200000200000,
|
|
#BPMCHANGE 249.81
|
|
#SCROLL 1.02
|
|
100000000000200000100000000000100000200000100000,
|
|
#BPMCHANGE 249.06
|
|
000000100000200000200000100000000000200000200000,
|
|
#BPMCHANGE 249.62
|
|
100000000000100000100000000000100000200000000000,
|
|
#BPMCHANGE 256.59
|
|
#SCROLL 0.99
|
|
100000000000200000000000100000100000200000200000,
|
|
#BPMCHANGE 249.43
|
|
#SCROLL 1.02
|
|
100000000000200000100000000000100000200000000000,
|
|
#BPMCHANGE 252.1
|
|
#SCROLL 1.01
|
|
100000000000200000000000100000000000200000200000,
|
|
#BPMCHANGE 250
|
|
#SCROLL 1.02
|
|
100000000000200000000000100000000000200000000000,
|
|
#BPMCHANGE 252
|
|
#SCROLL 1.01
|
|
000000100000200000000000100000000000200000200000,
|
|
#BPMCHANGE 254.72
|
|
#SCROLL 1
|
|
100000100000200000200000100000000000200000100000,
|
|
#BPMCHANGE 252.48
|
|
#SCROLL 1.01
|
|
000000100000200000200000100000000000200000200000,
|
|
#BPMCHANGE 251.71
|
|
100000000000100000100000000000100000200000000000,
|
|
#BPMCHANGE 253.64
|
|
#SCROLL 1
|
|
100000000000200000000000100000100000200000200000,
|
|
#BPMCHANGE 246.83
|
|
#SCROLL 1.03
|
|
100000000000200000100000500000000080000000000000,
|
|
#BPMCHANGE 251.71
|
|
#SCROLL 1.01
|
|
200200200000100000000000100000000000100000000000,
|
|
#BPMCHANGE 252.87
|
|
200200200000100000000000100000000000100000000000,
|
|
200200200000100000000000100000000000100000000000,
|
|
#BPMCHANGE 251.33
|
|
100200200000100200200000100200200000100200200000,
|
|
#BPMCHANGE 254.81
|
|
#SCROLL 1
|
|
200200200000100000000000100000000000100000000000,
|
|
#BPMCHANGE 250.09
|
|
#SCROLL 1.02
|
|
100200200000100000000000100200200000100000000000,
|
|
#BPMCHANGE 254.23
|
|
#SCROLL 1
|
|
100200200000100200200000100200200000100200200000,
|
|
#BPMCHANGE 252.1
|
|
#SCROLL 1.01
|
|
100200200000200000000000200000000000200000000000,
|
|
#BPMCHANGE 250.47
|
|
200200200000100000000000100000000000100000000000,
|
|
#BPMCHANGE 253.25
|
|
#SCROLL 1
|
|
200200200000100000000000100000000000100000000000,
|
|
#BPMCHANGE 252.48
|
|
#SCROLL 1.01
|
|
200200200000100000000000100000000000100000000000,
|
|
#BPMCHANGE 248.68
|
|
#SCROLL 1.02
|
|
100200200000100200200000100200200000100200200000,
|
|
#BPMCHANGE 256
|
|
#SCROLL 0.99
|
|
200200200000100000000000100000000000100000000000,
|
|
#BPMCHANGE 248.12
|
|
#SCROLL 1.02
|
|
100200200000100000000000100200200000100000000000,
|
|
#BPMCHANGE 252
|
|
#SCROLL 1.01
|
|
100200200000100200200000100200200000100200200000,
|
|
100200200000100000000000100200200200200200000000,
|
|
#BPMCHANGE 248.68
|
|
#SCROLL 1.02
|
|
300000000000200000300000200000300000000000200000,
|
|
#BPMCHANGE 255.41
|
|
#SCROLL 1
|
|
300000000000300000000000300000000000000000000000,
|
|
|
|
#GOGOSTART
|
|
#BPMCHANGE 249.81
|
|
#SCROLL 1.02
|
|
100000000000200000000000100000100000200000000000,
|
|
#BPMCHANGE 253.11
|
|
#SCROLL 1
|
|
100000000000200000000000100000000000400000000000,
|
|
300000000000400000000000300000000000400000000000,
|
|
#BPMCHANGE 252
|
|
#SCROLL 1.01
|
|
100000000000200000000000100000100000200000000000,
|
|
#BPMCHANGE 255.01
|
|
#SCROLL 1
|
|
100000000000200000000000100000200000000000300000,
|
|
#BPMCHANGE 249.06
|
|
#SCROLL 1.02
|
|
000000000000200000000000100000000000200000100000,
|
|
#BPMCHANGE 258
|
|
#SCROLL 0.98
|
|
000000000000100000100000200000200000000000300000,
|
|
#BPMCHANGE 246.28
|
|
#SCROLL 1.03
|
|
000000000000200000000000100000100000200000000000,
|
|
#BPMCHANGE 252
|
|
#SCROLL 1.01
|
|
100000000000200000000000100000100000200000000000,
|
|
100000000000200000000000100000000000400000000000,
|
|
300000000000400000000000300000000000400000000000,
|
|
100000000000200000000000100000100000200000000000,
|
|
#BPMCHANGE 253.84
|
|
#SCROLL 1
|
|
100000000000200000000000100000200000000000100000,
|
|
#BPMCHANGE 250.19
|
|
#SCROLL 1.02
|
|
000000000000200000000000100000000000200000100000,
|
|
#BPMCHANGE 254.52
|
|
#SCROLL 1
|
|
000000000000200000000000100000100000200000100000,
|
|
#BPMCHANGE 249.72
|
|
#SCROLL 1.02
|
|
000000000000200000000000100000000000200000000000,
|
|
#BPMCHANGE 256
|
|
#SCROLL 0.99
|
|
100000000000200000000000200000100000200000100000,
|
|
#BPMCHANGE 251.33
|
|
#SCROLL 1.01
|
|
000000000000200000000000100000100000200000100000,
|
|
#BPMCHANGE 250.19
|
|
#SCROLL 1.02
|
|
000000000000200000000000100000100000200000100000,
|
|
#BPMCHANGE 246.74
|
|
#SCROLL 1.03
|
|
000000000000100000000000200000300000000000000000,
|
|
|
|
#GOGOEND
|
|
#BPMCHANGE 255.8
|
|
#SCROLL 0.99
|
|
100000200000200000100000100000200000200000100000,
|
|
#BPMCHANGE 252
|
|
#SCROLL 1.01
|
|
200000200000100000200000200000100000200000000000,
|
|
100000100000200000100000100000200000100000100000,
|
|
#BPMCHANGE 252.96
|
|
#SCROLL 1
|
|
200000100000100000200000100000100000200000000000,
|
|
#BPMCHANGE 251.04
|
|
#SCROLL 1.01
|
|
100000200000200000100000100000200000200000100000,
|
|
#BPMCHANGE 252
|
|
200000200000100000200000200000100000200000000000,
|
|
100000100000200000100000100000200000100000100000,
|
|
#BPMCHANGE 253.93
|
|
#SCROLL 1
|
|
200000100000100000200000100000100000100000000000,
|
|
500080000000200000000000500080000000200000000000,
|
|
#BPMCHANGE 250.47
|
|
#SCROLL 1.01
|
|
500080000000400000000000500080000000400000000000,
|
|
#BPMCHANGE 249.72
|
|
#SCROLL 1.02
|
|
500080000000500080000000600080000000600080000000,
|
|
#BPMCHANGE 256.89
|
|
#SCROLL 0.99
|
|
400000000000400000000000400000000000400000000000,
|
|
#BPMCHANGE 243.92
|
|
#SCROLL 1.04
|
|
100000000000000000000000000000000000000000000000,
|
|
#BPMCHANGE 252.29
|
|
#SCROLL 0.5
|
|
000000000000000000000000000000000000100000000000,
|
|
#BPMCHANGE 256
|
|
400000000000300000000000300000000000300000000000,
|
|
#BPMCHANGE 254.33
|
|
400000000000300000000000300000000000300000000000,
|
|
#BPMCHANGE 250.66
|
|
400000000000300000000000300000000000300000000000,
|
|
#BPMCHANGE 251.52
|
|
400000000000300000000000300000000000300000000000,
|
|
#BPMCHANGE 251.81
|
|
400000000000300000000000300000000000300000000000,
|
|
#BPMCHANGE 252.39
|
|
400000000000300000000000400000000000300000000000,
|
|
#BPMCHANGE 254.13
|
|
400000000000300000000000300000000000300000000000,
|
|
#BPMCHANGE 248.59
|
|
#SCROLL 0.51
|
|
400000000000300000000000300000000000300000000000,
|
|
#BPMCHANGE 252
|
|
#SCROLL 0.5
|
|
400000000000300000000000300000000000300000000000,
|
|
#BPMCHANGE 252.67
|
|
400000000000300000000000300000000000300000000000,
|
|
#BPMCHANGE 251.9
|
|
400000000000300000000000300000000000300000000000,
|
|
#BPMCHANGE 252.31
|
|
400000000000300000000000300000000000300000000000,
|
|
#BPMCHANGE 252.36
|
|
400000000000300000000000300000000000300000000000,
|
|
#BPMCHANGE 254.42
|
|
400000000000300000000000400000000000300000000000,
|
|
#BPMCHANGE 249.39
|
|
#SCROLL 0.51
|
|
200000000000200000000000200000200000000000200000,
|
|
000000000000200000000000300000000000000000000000,
|
|
#BPMCHANGE 253.64
|
|
#SCROLL 1.5
|
|
100000000000200000000000100000100000200000000000,
|
|
#BPMCHANGE 251.68
|
|
#SCROLL 1.51
|
|
100000000000200000000000100000000000400000000000,
|
|
300000000000400000000000300000000000400000000000,
|
|
100000000000200000000000100000100000200000000000,
|
|
#BPMCHANGE 253.45
|
|
#SCROLL 1.5
|
|
100000000000200000000000100000200000000000300000,
|
|
#BPMCHANGE 251.52
|
|
#SCROLL 1.51
|
|
000000000000200000000000100000000000200000100000,
|
|
#BPMCHANGE 252
|
|
000000000000100000100000200000200000000000300000,
|
|
000000000000200000000000100000100000200000000000,
|
|
#BPMCHANGE 245.36
|
|
#SCROLL 1.56
|
|
100000000000200000000000100000100000200000000000,
|
|
#BPMCHANGE 254.91
|
|
#SCROLL 1.5
|
|
100000000000200000000000100000000000200000000000,
|
|
300000000000200000000000300000000000200000000000,
|
|
#BPMCHANGE 250.95
|
|
#SCROLL 1.51
|
|
300000000000200000000000300000000000200000000000,
|
|
#BPMCHANGE 255.41
|
|
#SCROLL 1.5
|
|
100000000000200000000000200000100000200000000000,
|
|
#BPMCHANGE 251.52
|
|
100000000000200000000000200000100000200000000000,
|
|
#SCROLL 1.51
|
|
100000000000200000000000200000100000200000000000,
|
|
#BPMCHANGE 249.81
|
|
100000000000200000000000100000100000200000000000,
|
|
#BPMCHANGE 253.93
|
|
#SCROLL 1.5
|
|
100000000000200000000000200000100000200000100000,
|
|
#BPMCHANGE 252
|
|
#SCROLL 1.51
|
|
000000000000200000000000100000100000200000100000,
|
|
000000000000200000000000100000100000200000100000,
|
|
000000000000100000000000200000100000200000100000,
|
|
100000100000200000000000200000100000200000100000,
|
|
000000000000200000000000100000100000200000100000,
|
|
000000000000200000000000100000100000200000100000,
|
|
000000000000200000000000100000000000200000100000,
|
|
#BPMCHANGE 252.87
|
|
100000000000400000000000100000000000400000000000,
|
|
100000000000400000000000100000000000400000000000,
|
|
#BPMCHANGE 250.28
|
|
100000000000400000000000100000000000400000000000,
|
|
#BPMCHANGE 252.77
|
|
100000000000400000000000100000000000400000000000,
|
|
#BPMCHANGE 250.57
|
|
300000000000300000000000400000400000000000400000,
|
|
#BPMCHANGE 249.06
|
|
000000000000300000000000100000300000000000000000,
|
|
|
|
|
|
#END
|
|
|
|
|
|
COURSE:Hard
|
|
LEVEL:7
|
|
SCOREINIT:430
|
|
SCOREDIFF:118
|
|
|
|
|
|
#START
|
|
|
|
|
|
#BPMCHANGE 252
|
|
#SCROLL 0.8
|
|
1212,
|
|
10110110,
|
|
1212,
|
|
10110110,
|
|
1212,
|
|
10110110,
|
|
1212,
|
|
10110001,
|
|
02201010,
|
|
10110000,
|
|
10201011,
|
|
10110001,
|
|
02201010,
|
|
10110000,
|
|
10201011,
|
|
10110000,
|
|
1112,
|
|
1112,
|
|
01101011,
|
|
10101001,
|
|
02201010,
|
|
10110000,
|
|
10201110,
|
|
30303001,
|
|
02201010,
|
|
10110000,
|
|
10201011,
|
|
10110001,
|
|
02201010,
|
|
10110000,
|
|
10201011,
|
|
10110001,
|
|
1112,
|
|
1112,
|
|
01101011,
|
|
10101001,
|
|
02201010,
|
|
10110000,
|
|
10201110,
|
|
10110000,
|
|
0122,
|
|
0221,
|
|
0112,
|
|
1212,
|
|
0122,
|
|
1221,
|
|
2121,
|
|
1210,
|
|
0122,
|
|
0221,
|
|
0112,
|
|
1212,
|
|
0122,
|
|
1221,
|
|
2121,
|
|
1120,
|
|
30030300,
|
|
4440,//58
|
|
|
|
#GOGOSTART
|
|
1222,
|
|
1203,
|
|
4434,
|
|
0122,
|
|
20102003,
|
|
00101103,
|
|
00101103,
|
|
0202,
|
|
1222,
|
|
1203,
|
|
4434,
|
|
0122,
|
|
10202201,
|
|
00202202,
|
|
00201101,
|
|
0211,
|
|
10202202,
|
|
00202202,
|
|
00201101,
|
|
00100300,//78
|
|
|
|
#GOGOEND
|
|
1212,
|
|
10110110,
|
|
1212,
|
|
10110110,
|
|
1212,
|
|
10110110,
|
|
1212,
|
|
10110110,
|
|
0202,
|
|
0404,
|
|
2222,
|
|
4444,
|
|
1,
|
|
,
|
|
0333,
|
|
0333,
|
|
0333,
|
|
0333,
|
|
0333,
|
|
0303,
|
|
0333,
|
|
0333,
|
|
4333,
|
|
4333,
|
|
4333,
|
|
4333,
|
|
4333,
|
|
4343,
|
|
4,
|
|
03,
|
|
#GOGOSTART
|
|
1222,
|
|
1203,
|
|
4434,
|
|
0122,
|
|
20102003,
|
|
00101103,
|
|
00101103,
|
|
0202,
|
|
1222,
|
|
1202,
|
|
4141,
|
|
4140,
|
|
1222,
|
|
1222,
|
|
1222,
|
|
1212,
|
|
10202202,
|
|
00202202,
|
|
00201101,
|
|
0101,
|
|
10202202,
|
|
00202202,
|
|
00201101,
|
|
00101004,
|
|
0404,
|
|
0404,
|
|
0404,
|
|
0404,
|
|
11,
|
|
30300400,
|
|
#GOGOEND
|
|
|
|
|
|
#END
|
|
|
|
|
|
COURSE:Normal
|
|
LEVEL:6
|
|
SCOREINIT:450
|
|
SCOREDIFF:125
|
|
|
|
|
|
#START
|
|
|
|
|
|
#BPMCHANGE 252
|
|
#SCROLL 0.5
|
|
11,
|
|
0330,
|
|
22,
|
|
0440,
|
|
11,
|
|
0330,
|
|
22,
|
|
00404003,
|
|
0110,
|
|
1100,
|
|
11,
|
|
10100003,
|
|
0110,
|
|
1100,
|
|
11,
|
|
1100,
|
|
1110,
|
|
2220,
|
|
11,
|
|
10000003,
|
|
0110,
|
|
1100,
|
|
11,
|
|
30303003,
|
|
0110,
|
|
1100,
|
|
11,
|
|
10100003,
|
|
0110,
|
|
1100,
|
|
11,
|
|
1100,
|
|
1110,
|
|
2220,
|
|
11,
|
|
10000003,
|
|
0110,
|
|
1100,
|
|
11,
|
|
3330,
|
|
0111,
|
|
0222,
|
|
0111,
|
|
2222,
|
|
0111,
|
|
11,
|
|
2220,
|
|
22,
|
|
0111,
|
|
0222,
|
|
0111,
|
|
2222,
|
|
0111,
|
|
11,
|
|
1212,
|
|
1110,
|
|
6,
|
|
000000000000000000000000000008000000000000000000,//58
|
|
|
|
#GOGOSTART
|
|
1022,
|
|
1103,
|
|
3333,
|
|
0111,
|
|
20002003,
|
|
00101003,
|
|
00101006,
|
|
000000000000000000000000000000000008000000000000,
|
|
1022,
|
|
1104,
|
|
4444,
|
|
0111,
|
|
20002003,
|
|
00101003,
|
|
00101003,
|
|
0100,
|
|
10001003,
|
|
00101003,
|
|
00101003,
|
|
00300400,//78
|
|
|
|
#GOGOEND
|
|
11,
|
|
0330,
|
|
22,
|
|
0440,
|
|
11,
|
|
0330,
|
|
22,
|
|
0440,
|
|
0202,
|
|
0404,
|
|
500000000000000000000000000000000008000000000000,
|
|
4444,
|
|
1,
|
|
,
|
|
0404,
|
|
0404,
|
|
0404,
|
|
0404,
|
|
0404,
|
|
0404,
|
|
0404,
|
|
0404,
|
|
0404,
|
|
0404,
|
|
0404,
|
|
0404,
|
|
0404,
|
|
0404,
|
|
4,
|
|
03,
|
|
#GOGOSTART
|
|
3022,
|
|
1103,
|
|
3333,
|
|
0111,
|
|
20002003,
|
|
00101003,
|
|
00101006,
|
|
000000000000000000000000000000000008000000000000,
|
|
1022,
|
|
1104,
|
|
44,
|
|
44,
|
|
2222,
|
|
0222,
|
|
0222,
|
|
0222,
|
|
10001003,
|
|
00101003,
|
|
00101003,
|
|
0101,
|
|
10001003,
|
|
00101003,
|
|
00101003,
|
|
0100,
|
|
0404,
|
|
0404,
|
|
0404,
|
|
0404,
|
|
11,
|
|
30300400,
|
|
#GOGOEND
|
|
|
|
|
|
#END
|
|
|
|
|
|
COURSE:Easy
|
|
LEVEL:4
|
|
SCOREINIT:360
|
|
SCOREDIFF:105
|
|
|
|
|
|
#START
|
|
|
|
|
|
#BPMCHANGE 252
|
|
#SCROLL 0.5
|
|
,
|
|
0110,
|
|
,
|
|
0110,
|
|
,
|
|
0110,
|
|
,
|
|
0110,
|
|
22,
|
|
2,
|
|
11,
|
|
1,
|
|
22,
|
|
2,
|
|
11,
|
|
1,
|
|
2,
|
|
22,
|
|
1,
|
|
11,
|
|
22,
|
|
2,
|
|
11,
|
|
3330,
|
|
22,
|
|
2,
|
|
11,
|
|
1,
|
|
22,
|
|
2,
|
|
11,
|
|
1,
|
|
2,
|
|
22,
|
|
11,
|
|
1,
|
|
22,
|
|
2,
|
|
11,
|
|
3330,
|
|
0202,
|
|
0202,
|
|
0220,
|
|
22,
|
|
0101,
|
|
0101,
|
|
0110,
|
|
11,
|
|
0202,
|
|
0202,
|
|
0220,
|
|
22,
|
|
0101,
|
|
0101,
|
|
11,
|
|
11,
|
|
600000000000000000000000000000000000000000000008,
|
|
,//58
|
|
|
|
#GOGOSTART
|
|
11,
|
|
1003,
|
|
3033,
|
|
0220,
|
|
10000003,
|
|
00000003,
|
|
00000006,
|
|
000000000000000000000000000008000000000000000000,
|
|
11,
|
|
1003,
|
|
3033,
|
|
0220,
|
|
10000003,
|
|
00000003,
|
|
00000003
|
|
,
|
|
10000003,
|
|
00000003,
|
|
00000003,
|
|
00000400,//78
|
|
|
|
#GOGOEND
|
|
1,
|
|
0220,
|
|
1,
|
|
0220,
|
|
1,
|
|
0220,
|
|
1,
|
|
0220,
|
|
0202,
|
|
0404,
|
|
500000000000000000000000000008000000000000000000,
|
|
4444,
|
|
,
|
|
,
|
|
0404,
|
|
0404,
|
|
0404,
|
|
0404,
|
|
0404,
|
|
0404,
|
|
0404,
|
|
0404,
|
|
0404,
|
|
0404,
|
|
0404,
|
|
0404,
|
|
0404,
|
|
0404,
|
|
4,
|
|
03,
|
|
#GOGOSTART
|
|
11,
|
|
1003,
|
|
3033,
|
|
0220,
|
|
10000003,
|
|
00000003,
|
|
00000006,
|
|
000000000000000000000000000008000000000000000000,
|
|
11,
|
|
1003,
|
|
33,
|
|
33,
|
|
0202,
|
|
0202,
|
|
0202,
|
|
0110,
|
|
10000003,
|
|
00000003,
|
|
00000003,
|
|
,
|
|
10000003,
|
|
00000003,
|
|
00000003,
|
|
,
|
|
0404,
|
|
0404,
|
|
0404,
|
|
0400,
|
|
11,
|
|
3300,
|
|
#GOGOEND
|
|
|
|
|
|
#END
|
|
|