Files
ESE/01 Pop/Dragostea Din Tei/Dragostea Din Tei.tja
T
2023-06-15 19:15:39 -05:00

276 lines
6.7 KiB
Plaintext

//TJADB Project
TITLE:Dragostea Din Tei
TITLEJA:恋のマイアヒ
SUBTITLE:--O-ZONE
BPM:130
WAVE:Dragostea Din Tei.ogg
OFFSET:-2.144
DEMOSTART:15.867
COURSE:Oni
LEVEL:8
SCOREINIT:860
SCOREDIFF:190
#START
,
,
,
,
0202,
0202,
1111,
3,
1010221010112020,
1010221011112020,
1010221010112040,
04000000,
1010221010112020,
1010221011112020,
1010221010112040,
04000000,
1020112010203000,
1020111110003000,
1020112010201120,
1010201000003000,
0010112210002000,
1020112010221120,
1020112010221120,
12222222,
1010202211102020,
1010202210112020,
1010202211102000,
1010202210112020,
1010202211102020,
0022202220003000,
1010202211102020,
1212,
3044,
#GOGOSTART
1020102011221122,
1022102011221122,
1022202011221122,
1122100040004000,
1020102011221122,
1022102010201020,
1210202012102000,
3044,
1020102011221122,
1022102011221122,
1022202011221122,
1122100040004000,
1020102011221122,
1022102010201020,
1210202012102000,
3,
#GOGOEND
#END
COURSE:Hard
LEVEL:5
BALLOON:8
SCOREINIT:860
SCOREDIFF:220
#START
,
,
,
,
0202,
0202,
1111,
3,
11201012,
11201022,
11201012,
02000000,
11201012,
11201022,
11201012,
02000000,
10121030,
1010101110003000,
10121012,
11210030,
0010111110004000,
10121012,
10121012,
12222222,
11221120,
1010202010222020,
11221120,
1010202010222020,
11221122,
7008,
11221120,
1212,
3022,
#GOGOSTART
11221212,
12201212,
1022200010201020,
12102020,
11221212,
12201210,
11201120,
3044,
11221212,
12201212,
1022200010201020,
12104040,
11221212,
12201210,
11201120,
3,
#GOGOEND
#END
COURSE:Normal
LEVEL:3
BALLOON:4
SCOREINIT:750
SCOREDIFF:350
#START
000000000000000000000000000000000000000000000000,
000000000000000000000000000000000000000000000000,
000000000000000000000000000000000000000000000000,
000000000000000000000000000000000000000000000000,
000000000000200000000000000000000000200000000000,
000000000000200000000000000000000000200000000000,
100000000000100000000000100000000000100000000000,
300000000000000000000000000000000000000000000000,
100000100000100000000000100000000000000000000000,
200000200000200000000000200000000000000000000000,
100000100000100000000000100000000000000000200000,
000000200000000000000000000000000000000000000000,
100000100000100000000000100000000000000000000000,
200000200000200000000000200000000000000000000000,
100000100000100000000000100000000000000000200000,
000000200000000000000000000000000000000000000000,
100000000000100000000000100000000000000000000000,
200000000000200000000000200000000000000000000000,
100000000000100000000000100000000000100000000000,
100000000000100000000000000000000000300000000000,
000000000000000000000000400000000000000000000000,
100000000000100000000000100000000000100000100000,
100000000000100000000000100000000000100000000000,
500000000000000000000800000000000000000000000000,
100000100000000000000000100000100000000000000000,
100000100000000000000000200000200000000000000000,
100000100000000000000000100000100000000000000000,
100000100000000000000000200000200000000000000000,
100000000000000000000000100000000000100000000000,
700000000000000000000000000000000800000000000000,
100000100000000000000000100000100000000000000000,
100000000000200000000000100000000000200000000000,
100000000000000000000000000000000000000000000000,
#GOGOSTART
100000000000100000000000100000100000100000000000,
100000000000000000000000100000100000100000000000,
100000000000000000000000100000100000100000000000,
100000100000100000000000100000000000000000000000,
100000000000100000000000100000100000100000000000,
100000000000000000000000100000000000000000000000,
100000000000200000000000100000000000200000000000,
100000000000000000000000000000000000000000000000,
100000000000100000000000100000100000100000000000,
100000000000000000000000100000100000100000000000,
100000000000000000000000100000100000100000000000,
100000100000100000000000100000000000000000000000,
100000000000100000000000100000100000100000000000,
100000000000000000000000100000000000000000000000,
100000000000200000000000100000000000200000000000,
300000000000000000000000000000000000000000000000,
#GOGOEND
#END
COURSE:Easy
LEVEL:3
BALLOON:5
SCOREINIT:830
SCOREDIFF:360
#START
000000000000000000000000000000000000000000000000,
000000000000000000000000000000000000000000000000,
000000000000000000000000000000000000000000000000,
000000000000000000000000000000000000000000000000,
000000000000200000000000000000000000200000000000,
000000000000200000000000000000000000200000000000,
500000000000000000000000000000000080000000000000,
300000000000000000000000000000000000000000000000,
100000000000100000000000100000000000000000000000,
200000000000200000000000200000000000000000000000,
100000000000100000000000100000000000000000000000,
300000000000000000000000000000000000000000000000,
100000000000100000000000100000000000000000000000,
200000000000200000000000200000000000000000000000,
100000000000100000000000100000000000000000000000,
300000000000000000000000000000000000000000000000,
100000000000000000000000100000000000000000000000,
200000000000000000000000200000000000000000000000,
100000000000100000000000100000000000100000000000,
100000000000000000000000000000000000300000000000,
000000000000000000000000400000000000000000000000,
100000000000100000000000100000000000100000000000,
100000000000100000000000100000000000100000000000,
500000000000000000000080000000000000000000000000,
100000000000000000000000100000000000000000000000,
100000000000000000000000100000100000000000000000,
100000000000000000000000100000000000000000000000,
100000000000000000000000100000100000000000000000,
100000000000000000000000100000000000000000000000,
700000000000000000000000000000800000000000000000,
100000000000000000000000100000000000000000000000,
100000000000100000000000100000000000100000000000,
100000000000000000000000000000000000000000000000,
#GOGOSTART
100000000000000000000000100000000000100000000000,
100000000000000000000000100000000000100000000000,
100000000000000000000000300000000000300000000000,
300000000000000000000000100000000000000000000000,
100000000000000000000000100000000000100000000000,
100000000000000000000000100000000000000000000000,
200000000000000000000000100000000000000000000000,
300000000000000000000000000000000000000000000000,
100000000000000000000000100000000000100000000000,
100000000000000000000000100000000000100000000000,
100000000000000000000000300000000000300000000000,
300000000000000000000000100000000000000000000000,
100000000000000000000000100000000000100000000000,
100000000000000000000000100000000000000000000000,
200000000000000000000000100000000000000000000000,
300000000000000000000000000000000000000000000000,
#GOGOEND
#END