Files
ESE/01 Pop/Duimian de Nuhai Kan Guolai/Duimian de Nuhai Kan Guolai.tja
T

592 lines
15 KiB
Plaintext

//TJADB Project
TITLE:Duimian de Nuhai Kan Guolai
TITLEZH:對面的女孩看過來
SUBTITLE:--Richie Jen
SUBTITLEZH:--任賢齊
BPM:129.94
WAVE:Duimian de Nuhai Kan Guolai.ogg
OFFSET:-1.950
DEMOSTART:44.218
COURSE:Oni
LEVEL:6
BALLOON:18
SCOREINIT:1060
SCOREDIFF:250
#START
#SCROLL 0.99
000000000000000000000000000000000000000000000000,
#BPMCHANGE 128.45
#SCROLL 1.01
000000000000000000000000000000000000000000000000,
#BPMCHANGE 129.62
#SCROLL 1
000000000000000000000000000000000000000000000000,
#BPMCHANGE 129
100000000000200000002000100000001000200000000000,
#BPMCHANGE 130.22
#SCROLL 0.99
100000000000200000000000100000000000000000000000,
#BPMCHANGE 130.9
100000000000200000000000100000000000000000000000,
#BPMCHANGE 130.56
100000000000200000000000100000000000000000000000,
#BPMCHANGE 131.57
#SCROLL 0.98
100000000000200000002000100000001000200000000000,
#BPMCHANGE 129.49
#SCROLL 1
100000000000200000000000100000000000000000000000,
#BPMCHANGE 131.14
#SCROLL 0.99
100000000000200000002000100000001000200000000000,
#BPMCHANGE 127.01
#SCROLL 1.02
100000000000200000000000100000000000000000000000,
#BPMCHANGE 129.02
#SCROLL 1
100000000000000000000000000000000000000000000000,
#BPMCHANGE 129.3
100000000000200000002000100000000000200000001000,
#BPMCHANGE 127.78
#SCROLL 1.01
100000000000200000002000100000001000200000001000,
#BPMCHANGE 130.01
#SCROLL 0.99
100000000000200000002000100000001000200000001000,
#BPMCHANGE 130.75
100000000000200000001000100000000000200000000000,
#BPMCHANGE 131.57
#SCROLL 0.98
100000000000200000002000100000000000200000001000,
#BPMCHANGE 127.9
#SCROLL 1.01
100000000000200000002000100000001000200000001000,
#BPMCHANGE 130.99
#SCROLL 0.99
100000000000200000002000100000001000200000001000,
#BPMCHANGE 129.41
#SCROLL 1
100000000000200000000000300000000000000000000000,
#BPMCHANGE 131.14
#SCROLL 0.99
100000002000100000001000000000001000200000001000,
#BPMCHANGE 134.02
#SCROLL 0.96
700000000000000000000000000000000000000000000000,
#BPMCHANGE 127.75
#SCROLL 1.01
000000000000000000000000000000008000000000000000,
#GOGOSTART
#BPMCHANGE 129.9
#SCROLL 0.99
100000000000200000001000100000001000200000001000,
#BPMCHANGE 128.27
#SCROLL 1.01
100000001000200000001000100000002020200000002000,
#BPMCHANGE 129.63
#SCROLL 1
100000000000200000001000100000001000200000000000,
#BPMCHANGE 130.32
#SCROLL 0.99
100000000000200000003000000000001000200020002000,
#BPMCHANGE 130.63
100000000000200000001000100000001000200000001000,
#BPMCHANGE 129.23
#SCROLL 1
100000001000200000001000100000002020200000002000,
#BPMCHANGE 130.68
#SCROLL 0.99
100000000000200000001000100000001000200000000000,
#BPMCHANGE 129.72
#SCROLL 1
100000000000200000003000000000001000200010001000,
#BPMCHANGE 129.6
100000001000200000002000100000001000200000001000,
#BPMCHANGE 130.13
#SCROLL 0.99
100000001000200000002000100000002020200000002000,
#BPMCHANGE 130.29
100000001000200000001000100000001000200000000000,
#BPMCHANGE 129.62
#SCROLL 1
100000000000200000003000000000001000200020002000,
#BPMCHANGE 129.4
100000001000200000002000100000001000200000001000,
#BPMCHANGE 130.63
#SCROLL 0.99
100000001000200000002000100000002020200000002000,
#BPMCHANGE 130.61
100000000000200000001000100000001000200000000000,
#BPMCHANGE 129.82
#SCROLL 1
100000000000500000000000000000000000000000000008,
#BPMCHANGE 129.2
000000000000300000000000000000000000000000000000,
#BPMCHANGE 130.74
#SCROLL 0.99
100000000000200000001000100000002020200000002000,
#BPMCHANGE 129.94
100000001000200000001000100000002020200000002000,
#BPMCHANGE 130.75
100000001000200000001000100000001000200000000000,
#BPMCHANGE 129.24
#SCROLL 1
300000000000400000003000000000002020200000002000,
#BPMCHANGE 131.04
#SCROLL 0.99
100000000000200000001000100000001000200000001000,
#BPMCHANGE 130
100000001000200000001000100000002020200000002000,
#BPMCHANGE 129.82
#SCROLL 1
100000000000200000001000100000001000200000000000,
#BPMCHANGE 129
500000000000000000000000000000000000000000000008,
#GOGOEND
#END
COURSE:Hard
LEVEL:5
BALLOON:12
#START
#SCROLL 0.99
000000000000000000000000000000000000000000000000,
#BPMCHANGE 128.45
#SCROLL 1.01
000000000000000000000000000000000000000000000000,
#BPMCHANGE 129.62
#SCROLL 1
000000000000000000000000000000000000000000000000,
#BPMCHANGE 129
100000000000200000002000100000000000200000000000,
#BPMCHANGE 130.22
#SCROLL 0.99
100000000000200000000000100000000000000000000000,
#BPMCHANGE 130.9
100000000000200000000000100000000000000000000000,
#BPMCHANGE 130.56
100000000000200000000000100000000000000000000000,
#BPMCHANGE 131.57
#SCROLL 0.98
100000000000200000002000100000000000200000000000,
#BPMCHANGE 129.49
#SCROLL 1
100000000000200000000000100000000000000000000000,
#BPMCHANGE 131.14
#SCROLL 0.99
100000000000200000000000100000000000000000000000,
#BPMCHANGE 127.01
#SCROLL 1.02
100000000000200000000000100000000000000000000000,
#BPMCHANGE 129.02
#SCROLL 1
300000000000000000000000000000000000000000000000,
#BPMCHANGE 129.3
100000000000200000002000100000000000200000000000,
#BPMCHANGE 127.78
#SCROLL 1.01
100000000000200000002000100000001000200000000000,
#BPMCHANGE 130.01
#SCROLL 0.99
100000000000200000002000100000001000200000000000,
#BPMCHANGE 130.75
100000000000200000000000100000000000000000000000,
#BPMCHANGE 131.57
#SCROLL 0.98
100000000000200000002000100000000000200000000000,
#BPMCHANGE 127.9
#SCROLL 1.01
100000000000200000002000100000001000200000000000,
#BPMCHANGE 130.99
#SCROLL 0.99
100000000000200000002000100000001000200000000000,
#BPMCHANGE 129.41
#SCROLL 1
100000000000200000000000300000000000000000000000,
#BPMCHANGE 131.14
#SCROLL 0.99
000000000000000000000000000000000000000000000000,
#BPMCHANGE 134.02
#SCROLL 0.96
700000000000000000000000000000000000000000000000,
#BPMCHANGE 127.75
#SCROLL 1.01
000000000000000000000000000000000800000000000000,
#GOGOSTART
#BPMCHANGE 129.9
#SCROLL 0.99
100000000000200000001000100000002000200000001000,
#BPMCHANGE 128.27
#SCROLL 1.01
100000001000200000001000100000002000200000000000,
#BPMCHANGE 129.63
#SCROLL 1
100000000000200000001000100000002000200000000000,
#BPMCHANGE 130.32
#SCROLL 0.99
300000000000300000003000000000000000000000000000,
#BPMCHANGE 130.63
100000000000200000001000100000002000200000001000,
#BPMCHANGE 129.23
#SCROLL 1
100000001000200000001000100000002000200000000000,
#BPMCHANGE 130.68
#SCROLL 0.99
100000000000200000001000100000001000200000000000,
#BPMCHANGE 129.72
#SCROLL 1
300000000000300000003000000000000000000000000000,
#BPMCHANGE 129.6
100000000000200000001000100000001000200000001000,
#BPMCHANGE 130.13
#SCROLL 0.99
100000001000200000001000100000001000200000000000,
#BPMCHANGE 130.29
100000000000200000001000100000001000200000000000,
#BPMCHANGE 129.62
#SCROLL 1
300000000000300000003000000000000000000000000000,
#BPMCHANGE 129.4
100000000000200000001000100000001000200000001000,
#BPMCHANGE 130.63
#SCROLL 0.99
100000001000200000001000100000001000200000000000,
#BPMCHANGE 130.61
100000000000200000001000100000001000200000000000,
#BPMCHANGE 129.82
#SCROLL 1
500000000000000000000000000000000008000000000000,
#BPMCHANGE 129.2
300000000000300000000000000000000000000000000000,
#BPMCHANGE 130.74
#SCROLL 0.99
100000000000200000001000100000002000200000002000,
#BPMCHANGE 129.94
100000000000200000001000100000002000200000000000,
#BPMCHANGE 130.75
100000001000200000002000100000001000200000000000,
#BPMCHANGE 129.24
#SCROLL 1
300000000000000000000000000000000000000000000000,
#BPMCHANGE 131.04
#SCROLL 0.99
100000000000200000001000100000002000200000002000,
#BPMCHANGE 130
100000000000200000001000100000002000200000000000,
#BPMCHANGE 129.82
#SCROLL 1
100000001000200000002000100000001000200000000000,
#BPMCHANGE 129
500000000000000000000000000000000000000000000008,
#GOGOEND
#END
COURSE:Normal
LEVEL:3
BALLOON:14
#START
#SCROLL 0.99
000000000000000000000000000000000000000000000000,
#BPMCHANGE 128.45
#SCROLL 1.01
000000000000000000000000000000000000000000000000,
#BPMCHANGE 129.62
#SCROLL 1
000000000000000000000000000000000000000000000000,
#BPMCHANGE 129
100000000000000000000000200000000000000000000000,
#BPMCHANGE 130.22
#SCROLL 0.99
100000000000100000000000100000000000000000000000,
#BPMCHANGE 130.9
100000000000100000000000100000000000000000000000,
#BPMCHANGE 130.56
100000000000100000000000100000000000000000000000,
#BPMCHANGE 131.57
#SCROLL 0.98
100000000000000000000000200000000000000000000000,
#BPMCHANGE 129.49
#SCROLL 1
100000000000100000000000100000000000000000000000,
#BPMCHANGE 131.14
#SCROLL 0.99
100000000000100000000000100000000000000000000000,
#BPMCHANGE 127.01
#SCROLL 1.02
100000000000000000000000200000000000000000000000,
#BPMCHANGE 129.02
#SCROLL 1
300000000000000000000000000000000000000000000000,
#BPMCHANGE 129.3
100000000000200000000000100000000000200000000000,
#BPMCHANGE 127.78
#SCROLL 1.01
100000000000100000000000100000000000000000000000,
#BPMCHANGE 130.01
#SCROLL 0.99
100000000000100000000000100000000000000000000000,
#BPMCHANGE 130.75
100000000000100000000000100000000000000000000000,
#BPMCHANGE 131.57
#SCROLL 0.98
100000000000200000000000100000000000200000000000,
#BPMCHANGE 127.9
#SCROLL 1.01
100000000000100000000000100000000000000000000000,
#BPMCHANGE 130.99
#SCROLL 0.99
100000000000100000000000100000000000000000000000,
#BPMCHANGE 129.41
#SCROLL 1
100000000000100000000000300000000000000000000000,
#BPMCHANGE 131.14
#SCROLL 0.99
000000000000000000000000000000000000000000000000,
#BPMCHANGE 134.02
#SCROLL 0.96
700000000000000000000000000000000000000000000000,
#BPMCHANGE 127.75
#SCROLL 1.01
000000000000000000000000000000000800000000000000,
#GOGOSTART
#BPMCHANGE 129.9
#SCROLL 0.99
300000000000400000000000300000000000400000000000,
#BPMCHANGE 128.27
#SCROLL 1.01
300000000000300000000000300000000000000000000000,
#BPMCHANGE 129.63
#SCROLL 1
300000000000300000000000300000000000000000000000,
#BPMCHANGE 130.32
#SCROLL 0.99
100000000000100000003000000000000000000000000000,
#BPMCHANGE 130.63
300000000000400000000000300000000000400000000000,
#BPMCHANGE 129.23
#SCROLL 1
300000000000300000000000300000000000000000000000,
#BPMCHANGE 130.68
#SCROLL 0.99
300000000000300000000000300000000000000000000000,
#BPMCHANGE 129.72
#SCROLL 1
100000000000100000003000000000000000000000000000,
#BPMCHANGE 129.6
300000000000400000000000300000000000400000000000,
#BPMCHANGE 130.13
#SCROLL 0.99
300000000000300000000000400000000000000000000000,
#BPMCHANGE 130.29
100000000000100000000000100000000000000000000000,
#BPMCHANGE 129.62
#SCROLL 1
100000000000100000003000000000000000000000000000,
#BPMCHANGE 129.4
300000000000400000000000300000000000400000000000,
#BPMCHANGE 130.63
#SCROLL 0.99
300000000000300000000000400000000000000000000000,
#BPMCHANGE 130.61
100000000000100000000000100000000000000000000000,
#BPMCHANGE 129.82
#SCROLL 1
100000000000500000000000000000000008000000000000,
#BPMCHANGE 129.2
300000000000000000000000000000000000100000000000,
#BPMCHANGE 130.74
#SCROLL 0.99
200000000000000000000000200000000000100000000000,
#BPMCHANGE 129.94
200000000000000000000000200000000000100000000000,
#BPMCHANGE 130.75
200000000000000000000000000000000000200000000000,
#BPMCHANGE 129.24
#SCROLL 1
300000000000000000000000000000000000000000000000,
#BPMCHANGE 131.04
#SCROLL 0.99
100000000000200000000000000000000000200000000000,
#BPMCHANGE 130
100000000000200000000000000000000000200000000000,
#BPMCHANGE 129.82
#SCROLL 1
100000000000200000000000000000000000200000000000,
#BPMCHANGE 129
500000000000000000000000000000000000000000000008,
#GOGOEND
#END
COURSE:Easy
LEVEL:3
BALLOON:12
#START
#SCROLL 0.99
000000000000000000000000000000000000000000000000,
#BPMCHANGE 128.45
#SCROLL 1.01
000000000000000000000000000000000000000000000000,
#BPMCHANGE 129.62
#SCROLL 1
000000000000000000000000000000000000000000000000,
#BPMCHANGE 129
100000000000000000000000100000000000000000000000,
#BPMCHANGE 130.22
#SCROLL 0.99
100000000000100000000000100000000000000000000000,
#BPMCHANGE 130.9
100000000000100000000000100000000000000000000000,
#BPMCHANGE 130.56
100000000000000000000000000000000000000000000000,
#BPMCHANGE 131.57
#SCROLL 0.98
100000000000000000000000100000000000000000000000,
#BPMCHANGE 129.49
#SCROLL 1
100000000000100000000000100000000000000000000000,
#BPMCHANGE 131.14
#SCROLL 0.99
100000000000100000000000100000000000000000000000,
#BPMCHANGE 127.01
#SCROLL 1.02
100000000000000000000000000000000000000000000000,
#BPMCHANGE 129.02
#SCROLL 1
000000000000000000000000000000000000000000000000,
#BPMCHANGE 129.3
100000000000000000000000200000000000000000000000,
#BPMCHANGE 127.78
#SCROLL 1.01
100000000000100000000000100000000000000000000000,
#BPMCHANGE 130.01
#SCROLL 0.99
100000000000100000000000100000000000000000000000,
#BPMCHANGE 130.75
100000000000000000000000000000000000000000000000,
#BPMCHANGE 131.57
#SCROLL 0.98
100000000000000000000000200000000000000000000000,
#BPMCHANGE 127.9
#SCROLL 1.01
100000000000100000000000100000000000000000000000,
#BPMCHANGE 130.99
#SCROLL 0.99
100000000000100000000000100000000000000000000000,
#BPMCHANGE 129.41
#SCROLL 1
100000000000000000000000000000000000000000000000,
#BPMCHANGE 131.14
#SCROLL 0.99
000000000000000000000000000000000000000000000000,
#BPMCHANGE 134.02
#SCROLL 0.96
700000000000000000000000000000000000000000000000,
#BPMCHANGE 127.75
#SCROLL 1.01
000000000000000000000000000000000800000000000000,
#GOGOSTART
#BPMCHANGE 129.9
#SCROLL 0.99
300000000000300000000000300000000000000000000000,
#BPMCHANGE 128.27
#SCROLL 1.01
200000000000200000000000200000000000000000000000,
#BPMCHANGE 129.63
#SCROLL 1
100000000000000000000000100000000000000000000000,
#BPMCHANGE 130.32
#SCROLL 0.99
100000000000000000000000000000000000000000000000,
#BPMCHANGE 130.63
300000000000300000000000300000000000000000000000,
#BPMCHANGE 129.23
#SCROLL 1
200000000000200000000000200000000000000000000000,
#BPMCHANGE 130.68
#SCROLL 0.99
100000000000000000000000000000000000000000000000,
#BPMCHANGE 129.72
#SCROLL 1
500000000000000000000000000008000000000000000000,
#BPMCHANGE 129.6
300000000000300000000000300000000000000000000000,
#BPMCHANGE 130.13
#SCROLL 0.99
200000000000200000000000200000000000000000000000,
#BPMCHANGE 130.29
100000000000000000000000100000000000000000000000,
#BPMCHANGE 129.62
#SCROLL 1
100000000000000000000000000000000000000000000000,
#BPMCHANGE 129.4
300000000000300000000000300000000000000000000000,
#BPMCHANGE 130.63
#SCROLL 0.99
200000000000200000000000200000000000000000000000,
#BPMCHANGE 130.61
100000000000000000000000100000000000000000000000,
#BPMCHANGE 129.82
#SCROLL 1
500000000000000000000000000008000000000000000000,
#BPMCHANGE 129.2
000000000000000000000000000000000000000000000000,
#BPMCHANGE 130.74
#SCROLL 0.99
100000000000000000000000100000000000000000000000,
#BPMCHANGE 129.94
100000000000100000000000100000000000000000000000,
#BPMCHANGE 130.75
100000000000000000000000100000000000000000000000,
#BPMCHANGE 129.24
#SCROLL 1
300000000000000000000000000000000000000000000000,
#BPMCHANGE 131.04
#SCROLL 0.99
100000000000000000000000100000000000000000000000,
#BPMCHANGE 130
100000000000100000000000100000000000000000000000,
#BPMCHANGE 129.82
#SCROLL 1
100000000000000000000000100000000000000000000000,
#BPMCHANGE 129
500000000000000000000000000000000000000000000008,
#GOGOEND
#END