Files
ESE/01 Pop/Fang Kai Ni De Xin/Fang Kai Ni De Xin.tja
T

211 lines
6.9 KiB
Plaintext

//TJADB Project
TITLE:Fang Kai Ni De Xin
TITLEZH:放開你的心
SUBTITLE:--Wang Leehom
SUBTITLEZH:王力宏
BPM:106
WAVE:Fang Kai Ni De Xin.ogg
OFFSET:-2.543
DEMOSTART:59.146
COURSE:Oni
LEVEL:6
SCOREINIT:1070
SCOREDIFF:290
#START
100000100000200000000000100100100000200000000000,
100000100100200100000200000000100000200000100000,
100000100000200000000000100100100000200000000000,
100000100100200100000000100000200000400000000000,
100000100000200000100000100100100000200000000000,
100000100000200000100000200200200000200000100000,
100000100000200000100000100100100000200000000000,
100000100000200000100000100000100000200000000000,
100000100000200000100000100100100000200000000000,
100000100000200000100000200200200000200000100000,
100000100000200000100000100100100000200000000000,
100000100000200000100000100000100000200000100000,
000000000000000000000000000000000000000000000000,
100000100100200000100000000000200200100000000000,
200000100100200000100000000000100100200000000000,
100000100100200000100000000000200200100000000000,
200000100100200000100000000000100100200000000000,
100000100100200000100100200000100100200000100000,
000000200200100000200000100000200200100000100000,
000000100100200000000000200200100000200000000000,
100100100000100000100000200200200000200000000000,
300000300000000000000000100100200000100000000000,
400000400000000000000000100100200000100000000000,
300000300000000000000000100100200000100000100000,
100100200000100000100000100100200000100000000000,
#GOGOSTART
100000100000200000100000100100100000200000000000,
100000100000200000100000200200200000200000100000,
100000100000200000100000100100100000200000000000,
100000100000200000100000100000100000200000000000,
100000100000200000100000100100100000200000000000,
100000100000200000100000200200200000200000100000,
100000100000200000100000100100100000200000000000,
100000100100200000100000100100100000200000100000,
#GOGOEND
#END
COURSE:Hard
LEVEL:4
BALLOON:10,10
SCOREINIT:1240
SCOREDIFF:340
#START
100000100000200000000000100000100000200000000000,
100000100000200000100000000000100000200000000000,
100000100000200000000000100000100000200000000000,
100000100000200000000000100000200000400000000000,
100000100000200000100000000000100000200000000000,
100000100000200000100000000000200000200000000000,
100000100000200000100000000000100000200000000000,
500000000000000000000000800000000000000000000000,
100000100000200000100000000000100000200000000000,
100000100000200000100000000000200000200000000000,
100000100000200000100000000000100000200000000000,
90000800,
,
100000100000200000100000000000200000100000000000,
100000100000200000100000000000100000200000000000,
100000100000200000100000000000200000100000000000,
100000100000200000100000000000100000200000000000,
100000100000200000100000200000000000200000100000,
000000100000200000200000100000000000200000200000,
000000100000200000000000100000100000200000000000,
100000100000100000100000200000000000200000200000,
300000300000000000000000100100100000100000000000,
400000400000000000000000200200200000200000000000,
300000300000000000000000100100100000100000000000,
100100100000100000000000100100100000100000000000,
#GOGOSTART
100000100000200000100000000000100000200000000000,
100000100000200000100000000000200000200000000000,
100000100000200000100000000000100000200000000000,
500000000000000000000000800000000000000000000000,
100000100000200000100000000000100000200000000000,
100000100000200000100000000000200000200000000000,
100000100000200000100000000000100000200000000000,
90000800,
#GOGOEND
#END
COURSE:Normal
LEVEL:4
BALLOON:6,6
SCOREINIT:1840
SCOREDIFF:800
#START
100000000000200000000000100000100000200000000000,
100000000000200000000000100000000000000000000000,
100000000000200000000000100000100000200000000000,
100000000000200000000000100000000000000000000000,
100000000000000000000000100000000000100000000000,
100000000000000000000000200000000000200000000000,
100000000000100000000000100000000000000000000000,
500000000000000000000000800000000000000000000000,
100000000000000000000000100000000000100000000000,
100000000000000000000000200000000000200000000000,
100000000000100000000000100000000000000000000000,
90000800,
000000000000000000000000000000000000000000000000,
100000000000100000100000000000000000100000000000,
100000000000100000100000000000000000200000000000,
100000000000100000100000000000000000100000000000,
100000000000100000100000000000000000200000000000,
100000000000100000000000200000000000200000000000,
100000000000000000000000100000000000100000000000,
100000000000000000000000200000000000200000000000,
100000000000000000000000100000000000000000000000,
300000300000000000000000100000000000000000000000,
400000400000000000000000200000000000000000000000,
300000300000000000000000100000000000000000000000,
500000000000000000000000800000000000000000000000,
#GOGOSTART
100000000000000000000000100000000000100000000000,
100000000000000000000000200000000000200000000000,
100000000000100000000000100000000000000000000000,
500000000000000000000000800000000000000000000000,
100000000000000000000000100000000000100000000000,
100000000000000000000000200000000000200000000000,
100000000000100000000000100000000000000000000000,
90000800,
#GOGOEND
#END
COURSE:Easy
LEVEL:3
BALLOON:5,5
SCOREINIT:1380
SCOREDIFF:760
#START
100000000000100000000000000000000000100000000000,
100000000000100000000000000000000000100000000000,
100000000000100000000000000000000000100000000000,
100000000000100000000000000000000000100000000000,
100000000000000000000000100000000000000000000000,
100000000000100000000000100000000000000000000000,
300000000000000000000000300000000000000000000000,
500000000000000000000000800000000000000000000000,
100000000000000000000000100000000000000000000000,
100000000000100000000000100000000000000000000000,
300000000000000000000000300000000000000000000000,
90000800,
000000000000000000000000000000000000000000000000,
100000000000100000100000000000000000000000000000,
100000000000100000100000000000000000000000000000,
100000000000100000100000000000000000000000000000,
100000000000100000100000000000000000000000000000,
100000000000100000000000100000000000100000000000,
000000000000000000000000100000000000100000000000,
000000000000000000000000200000000000200000000000,
000000000000000000000000100000000000000000000000,
300000000000000000000000100000000000000000000000,
400000000000000000000000200000000000000000000000,
300000000000000000000000100000000000000000000000,
500000000000000000000000800000000000000000000000,
#GOGOSTART
100000000000000000000000100000000000000000000000,
100000000000100000000000100000000000000000000000,
300000000000000000000000300000000000000000000000,
500000000000000000000000800000000000000000000000,
100000000000000000000000100000000000000000000000,
100000000000100000000000100000000000000000000000,
300000000000000000000000300000000000000000000000,
90000800,
#GOGOEND
#END