Files
ESE/01 Pop/Follow Me/Follow Me.tja
T
2023-06-15 19:15:39 -05:00

408 lines
5.1 KiB
Plaintext

//TJADB Project
TITLE:Follow Me
TITLEJA:Follow Me
SUBTITLE:--E-girls
BPM:143
WAVE:Follow Me.ogg
OFFSET:-1.993
DEMOSTART:47.298
COURSE:Oni
LEVEL:7
STYLE:Double
SCOREINIT:1350
SCOREDIFF:453
#START P1
,
02202202,
01001040,
10011010,
10011010,
10011012,
0010001010010000,
1000100100000020,
2000200200000000,
5,
000000000000000000000000000008000000000000000000,
1000100100000020,
2000200200000020,
20211021,
0010001010020000,
10011010,
10011010,
5,
000000000000000000000000000008000000000000000000,
10202011,
01000200,
1022202220001010,
0010001110001000,
1020200200002010,
01014030,
03011103,
0333,
#GOGOSTART
1011100000111000,
0011200000112000,
500000000000000000000000000000000000000000000008,
0000101110001010,
0000000000012020,
0000101110001010,
0000000000012020,
0333,
1001002010010020,
1001002010010020,
500000000000000000000000000000000000000000000008,
00100011,
0000200022101010,
00100011,
0000200022101010,
0333,
1011102220000010,
1022201110102000,
1011102220001010,
21212010,
10021000,
30304044,
#GOGOEND
#END
#START P2
,
10010010,
20220240,
1000100100000020,
2000200200000020,
20211021,
0010000100101000,
10011010,
10011010,
5,
000000000000000000000000000008000000000000000000,
10011010,
10011010,
10011012,
0010000100202000,
1000100100000020,
2000200200000000,
5,
000000000000000000000000000008000000000000000000,
1011101110001010,
0010001110001000,
10101011,
01000200,
1002002020001020,
02023040,
03011013,
0333,
#GOGOSTART
1000002210000022,
1000002210000020,
500000000000000000000000000000000000000000000008,
00100011,
0000200022101010,
00100011,
0000200022101010,
0333,
1010100200101002,
0010200200102000,
500000000000000000000000000000000000000000000008,
0000101110001010,
0000000000012020,
0000101110001010,
0000000000012020,
0333,
1022201110202010,
1011102220002000,
1011102220200010,
12121001,
10112000,
30304044,
#GOGOEND
#END
STYLE:Single
SCOREINIT:830
SCOREDIFF:190
#START
,
12212212,
21221240,
10011012,
20211012,
20211011,
0010001110101000,
11011012,
20211010,
1022201022102010,
0011201020104000,
1010001110001022,
2000201110001022,
20211011,
0010001110111000,
1010001110001022,
2000201110001000,
1022201022102010,
0011201120203000,
1011201022102010,
1022201110201020,
1011201120102011,
1022201111222020,
1022101011201020,
1011102220201000,
03011124,
0333,
#GOGOSTART
1011102210111022,
1011202210112022,
500000000000000000000000000000000000000000000008,
0000101110001020,
0000200022102020,
0000101110001020,
0000200022102020,
0333,
1011102210111022,
1011202210112022,
500000000000000000000000000000000000000000000008,
0000101110001020,
0000200022102020,
0000101110001020,
0000200022102020,
00101011,
1022201110222020,
1022201110222000,
1022201110222020,
1011201120222020,
10011000,
30304044,
#GOGOEND
#END
COURSE:Hard
LEVEL:6
SCOREINIT:940
SCOREDIFF:300
#START
,
2222,
20202240,
10011010,
00022020,
00011011,
01011110,
10011010,
00022020,
01021011,
01012040,
10011010,
00022020,
00011011,
01011110,
10011010,
00022020,
01122221,
01012030,
1011101010001010,
01011020,
1011101010001010,
0010002010222000,
1011101010001010,
0010001110222000,
03011024,
0333,
#GOGOSTART
1011100010111000,
1011100010111000,
500000000000000000000000000000000000000000000008,
00101011,
0000200022202020,
00101011,
0000200022202020,
0333,
2022200020222000,
2022200020222000,
500000000000000000000000000000000000000000000008,
00101011,
0000200022202020,
00101011,
0000200022202020,
00101011,
1011101010000010,
1011101020000000,
1011102020002020,
1011102220201000,
10011000,
30304044,
#GOGOEND
#END
COURSE:Normal
LEVEL:5
BALLOON:8
SCOREINIT:1310
SCOREDIFF:575
#START
,
,
,
1011,
0022,
00001011,
01011000,
1011,
0022,
5,
000000000000000000000000000008000000000000000000,
1011,
0022,
00001011,
01011000,
1011,
0022,
5,
000000000000000000000000000008000000000000000000,
1120,
10101110,
1120,
20202220,
1120,
10101110,
14,
,
#GOGOSTART
11101110,
11101110,
500000000000000000000000000000000000000000000008,
00101011,
00202022,
00101011,
00202022,
,
11101110,
11101110,
500000000000000000000000000000000000000000000008,
00101011,
00202022,
00101011,
00202022,
0111,
10011000,
20022000,
10011011,
1111,
10011000,
900000000000000000000000000000000000000000000008,
#GOGOEND
#END
COURSE:Easy
LEVEL:3
BALLOON:5
SCOREINIT:970
SCOREDIFF:645
#START
,
,
,
1011,
0022,
0011,
0111,
0011,
0022,
5,
000000000000000000000000000008000000000000000000,
1011,
0022,
0011,
0111,
0011,
0022,
5,
000000000000000000000000000008000000000000000000,
11,
1110,
11,
1110,
11,
1110,
11,
,
#GOGOSTART
3330,
3330,
500000000000000000000000000000000000000008000000,
0111,
0202,
0111,
0202,
,
3330,
3330,
500000000000000000000000000000000000000008000000,
0111,
0202,
0111,
0202,
,
10011000,
20022000,
10011010,
2220,
10011000,
900000000000000000000000000000000000000000000008,
#GOGOEND
#END