Files
ESE/01 Pop/Funa Funa Funassyi♪/Funa Funa Funassyi♪.tja
T
2023-06-15 19:15:39 -05:00

370 lines
5.5 KiB
Plaintext

//TJADB Project
TITLE:Funa Funa Funassyi♪
TITLEJA:ふな ふな ふなっしー♪
SUBTITLE:--Toshihiko Takamizawa feat. Funassyi
SUBTITLEJA:〜ふなっしー公式テーマソング〜
BPM:152
WAVE:Funa Funa Funassyi♪.ogg
OFFSET:-1.947
DEMOSTART:46.157
COURSE:Oni
LEVEL:8
SCOREINIT:540
SCOREDIFF:110
#START
111111111111111111111111,
111111111111111111111111,
11111111,
3000400000002222,
1111211111112111,
1111211111112111,
1111211111112111,
1111212111212111,
1111211111112111,
1111212111212222,
500000000000000000000000000000000000000008000000,
1010202010102022,
11221212,
100000100111200200000200,
11221202,
100000200111200200000200,
11221212,
100000100111200200000200,
11221202,
100000200111200300400000,
11221212,
100000100111200200000200,
11221202,
100000200111200200000200,
11221212,
100000000000100000101010200000200000200200100100,
12323234,
44440340,//28
#GOGOSTART
1111,
100000100000000000500000000000000008000000000000,
1210202012102020,
1210202000304000,
1111,
100000100000000000500000000000000008000000000000,
1210202012102020,
1210202000221010,//36
#GOGOEND
0010201020221010,
0010201020012010,
0010201020221010,
0010201020012010,
0010201020221010,
0010201020012000,
11111111,
3000400020201111,//44
#GOGOSTART
2011201120112011,
100000000000600000000000000000000008000000000000,
2011201120112011,
100000000000600000000000000000000008000000000000,
2011201120112011,
100000000000600000000000000000000008000000000000,
2011201120112011,
100000000000600000000000000000000008000000000000,
500000000000000000000000000008000000100000100000,
1110102010001020,
100000101010100000100100100010001000100000100000,
100000200000500000000008000000100100100100200000,
12121112,
12121112,
100200100200102020100000100010001000100100100100,
100200100200100000200000500000000008000000000000,
3030000011111110,
300000300000000000100100100100100100100100101010,
1100001100001100,
500000000000000000000000000000000000000008000000,//64
#GOGOEND
111111111111111111111111,
111111111111111111200000,
30600000,
000000000008000000000000000000000000000000000000,
#END
COURSE:Hard
LEVEL:5
SCOREINIT:650
SCOREDIFF:175
#START
11221122,
500000000000000000000000000000000000000008000000,
11111111,
3400,
1110100011101000,
1110100030004000,
1110100011101000,
1110101000101000,
1110100011101000,
1110101000101000,
500000000000000000000000000000000000000000000008,
,
11221022,
10210202,
11101110,
2000201000222000,
11221022,
10210202,
11101110,
10210340,
10221022,
10210102,
11102110,
1000201000222000,
11221022,
10210102,
3333,
600000000000000000008000000000300000400000000000,//28
#GOGOSTART
1111,
100000100000000000500000000000000008000000000000,
11221122,
11220340,
1111,
100000100000000000500000000000000008000000000000,
11221122,
1010202000111010,//36
#GOGOEND
01102011,
01212021,
01102011,
01212021,
01102011,
01212020,
11111111,
3400,//44
#GOGOSTART
0010101010111000,
300000000000600000000000000000000008000000000000,
0010101010111000,
300000000000600000000000000000000008000000000000,
0010101010111000,
300000000000600000000000000000000008000000000000,
0011101010111000,
300000000000600000000000000000000008000000000000,
1011,
1110100010001000,
1110100011101000,
100000100000500000000000000000000008000000000000,
12121012,
12101210,
1110200011102000,
100100100000100000100000500000000008000000000000,
33000000,
33000000,
1100001100001100,
500000000000000000000000000000000000000008000000,//64
#GOGOEND
11221122,
0004,
3600,
000000000008000000000000000000000000000000000000,
#END
COURSE:Normal
LEVEL:4
SCOREINIT:820
SCOREDIFF:295
#START
5,
000000000000000000000008000000000000000000000000,
3,
3400,
11,
1034,
,
,
1110,
1110,
500000000000000000000000000000000000000000000008,
,
11101000,
1,
11101000,
2,
11101000,
1,
11101000,
20000340,
11101000,
1,
11101000,
2,
11101000,
1,
3333,
600000000000000000000008000000000000000000000000,//28
#GOGOSTART
1111,
100000100000000000500000000000000008000000000000,
11101110,
10100440,
1111,
100000100000000000500000000000000008000000000000,
11101110,
10100001,//36
#GOGOEND
00101002,
00202001,
00101002,
00202001,
00101002,
0220,
1111,
3400,//44
#GOGOSTART
10101110,
3400,
10101110,
3400,
10101110,
3400,
10101110,
3400,
11,
11101010,
11102020,
500000000000000000000008000000000000000000000000,
11,
11101010,
11102020,
500000000000000000000008000000000000000000000000,
33000000,
33000000,
30030030,
600000000000000000000000000000000000000000000008,//64
#GOGOEND
,
,
3600,
000000000008000000000000000000000000000000000000,
#END
COURSE:Easy
LEVEL:3
SCOREINIT:690
SCOREDIFF:300
#START
5,
000000000000000000000008000000000000000000000000,
3,
3400,
11,
1034,
,
,
11,
11,
500000000000000000000000000000000000000000000008,
,
1110,
1,
1110,
1,
1110,
1,
1110,
1,
1110,
2,
1110,
2,
1110,
2,
3330,
600000000000000000000008000000000000000000000000,//28
#GOGOSTART
1111,
10010000,
1110,
1100,
1111,
10010000,
1110,
1100,//36
#GOGOEND
0220,
0220,
0110,
0110,
0220,
0220,
1111,
3400,//44
#GOGOSTART
1110,
3400,
1110,
3400,
1110,
3400,
1110,
3400,
11,
1110,
1110,
500000000000000000000008000000000000000000000000,
11,
1110,
1110,
500000000000000000000008000000000000000000000000,
3,
3,
30030030,
600000000000000000000000000000000000000000000008,//64
#GOGOEND
,
,
3600,
000000000008000000000000000000000000000000000000,
#END