485 lines
12 KiB
Plaintext
485 lines
12 KiB
Plaintext
//TJADB Project
|
|
TITLE:GALAXY EXPRESS 999
|
|
TITLEJA:GALAXY EXPRESS 999
|
|
SUBTITLE:--EXILE/KIRIN ZERO
|
|
SUBTITLEJA:劇場用アニメ「銀河鉄道999」より
|
|
BPM:131
|
|
WAVE:GALAXY EXPRESS 999.ogg
|
|
OFFSET:-2.133
|
|
DEMOSTART:16.558
|
|
|
|
COURSE:Oni
|
|
LEVEL:6
|
|
BALLOON:30
|
|
SCOREINIT:720
|
|
SCOREDIFF:198
|
|
|
|
|
|
#START
|
|
|
|
|
|
100000000000200000000000100000100000200000000000,
|
|
100000000000200000000000100000100000200000000000,
|
|
100000000000200000000000100000100000200000000000,
|
|
100000000000200000100000100000200000200000000000,
|
|
100000000000200000000000100000100000200000000000,
|
|
100000000000200000000000100000100000200000000000,
|
|
000000200000200200000000200000000200000000200000,
|
|
000200000200200000200000200200200200200200200200,
|
|
|
|
#GOGOSTART
|
|
100000100000200000100000100000200000200000000000,
|
|
100000100000200000100000100000200200200000000000,
|
|
100000100000200000100000100000200000200000000000,
|
|
100000100000200000100000100000200200200000000000,
|
|
100000100000200000100000100000200000200000000000,
|
|
100000100000200000100000100000200200200000000000,
|
|
100000100000200000100000100000200000200000000000,
|
|
100000100000200000100000100000200000100000200000,
|
|
100000100000200000000000000000000000000000000000,
|
|
|
|
#GOGOEND
|
|
000000000000000000100200100000200100200000000000,
|
|
100000000000200000000000100200000100200000000000,
|
|
100000000000200000000000100200000100200000000000,
|
|
100000000000200000000000100200000100200000000000,
|
|
100000100000200000100000100100100000200000000000,
|
|
100000000000200000000000100200000100200000000000,
|
|
100000000000200000000000100200000100200000000000,
|
|
100000000000200000000000100200000100200000000000,
|
|
100100200000100100200000100100200000100100200000,
|
|
100000000000200000000000100200000100200000000000,
|
|
100000000000200000000000100200000100200000000000,
|
|
100000000000200000000000100200000100200000000000,
|
|
100000100000200000100000100100100000200000000000,
|
|
100000000000200000000000100200000100200000000000,
|
|
100000000000200000000000100200000100200000000000,
|
|
100000000000200000000000100200000100200000000000,
|
|
100000100000100200100000100000300000000000000000,
|
|
100000000100200000100000100000000100200000100000,
|
|
100000000100200000100000100000000100200000100000,
|
|
100000000100200000100000100000000100200000100000,
|
|
100000000100200000100000100100100000200000000000,
|
|
100000000100200000100000100000000100200000100000,
|
|
100000000100200000100000100000000100200000100000,
|
|
100000100000200100200000100100000200100000000000,
|
|
#MEASURE 2/4
|
|
100000100000200100200000,
|
|
#MEASURE 4/4
|
|
100100000200100000000000100000100000200100200000,
|
|
100100000200100000500000000000000008000000000000,
|
|
|
|
#GOGOSTART
|
|
100000100000200000100000100100100000200000100000,
|
|
100000100000200000100000100100100000200200100100,
|
|
100000100000200000100000100100100000200000100000,
|
|
100000100100200000100000100000100100200000100000,
|
|
300000000000100100100000100000100100100000100000,
|
|
100000200000100000200000100000200000100000200000,
|
|
000000200000200000200000200000200000200000200000,
|
|
100000200000100000200000100000200000100000200000,
|
|
000000200000200000200000200000200000200000200000,
|
|
100000200000100000200000100000200000100000200000,
|
|
000000200000200000200000200000200000200000200000,
|
|
100000200100100000100000000000100100200000100000,
|
|
000000100000700000000000000000000000000000000000,
|
|
00000000000000000000000000080000,
|
|
|
|
#GOGOEND
|
|
|
|
|
|
#END
|
|
|
|
|
|
COURSE:Hard
|
|
LEVEL:5
|
|
BALLOON:25,25,25
|
|
SCOREINIT:620
|
|
SCOREDIFF:173
|
|
|
|
|
|
#START
|
|
|
|
|
|
10200120,
|
|
10200120,
|
|
10200120,
|
|
00202220,
|
|
10200120,
|
|
10200120,
|
|
0020220020020020,
|
|
0202202022202000,
|
|
|
|
#GOGOSTART
|
|
#SECTION
|
|
#BRANCHSTART p,75,90
|
|
#N
|
|
10201120,
|
|
10201120,
|
|
10201120,
|
|
10210120,
|
|
10201120,
|
|
10201120,
|
|
10110221,
|
|
01101200,
|
|
1200,
|
|
#GOGOEND
|
|
00020220,
|
|
|
|
#E
|
|
10211120,
|
|
10211120,
|
|
10211120,
|
|
1000201000112000,
|
|
10211120,
|
|
10211120,
|
|
10220221,
|
|
01201220,
|
|
1200,
|
|
#GOGOEND
|
|
00020220,
|
|
|
|
#M
|
|
11211120,
|
|
1010201011102000,
|
|
11211120,
|
|
1010201011102000,
|
|
11211120,
|
|
1010201011102000,
|
|
1010201011202000,
|
|
11211212,
|
|
11200000
|
|
#GOGOEND
|
|
0000000200202000,
|
|
|
|
#SECTION
|
|
#BRANCHSTART p,75,90
|
|
#N
|
|
10201120,
|
|
10201120,
|
|
10201120,
|
|
10210120,
|
|
10202210,
|
|
10202210,
|
|
10202210,
|
|
12121212,
|
|
|
|
#E
|
|
10201121,
|
|
10201121,
|
|
10201121,
|
|
10211120,
|
|
10202212,
|
|
10202212,
|
|
10202212,
|
|
12121212,
|
|
|
|
#M
|
|
11201121,
|
|
11201121,
|
|
11201121,
|
|
11211120,
|
|
11202212,
|
|
11202212,
|
|
11202212,
|
|
12121212,
|
|
|
|
#SECTION
|
|
#BRANCHSTART p,75,90
|
|
#N
|
|
10201120,
|
|
10201120,
|
|
10201120,
|
|
10210120,
|
|
10202210,
|
|
10202210,
|
|
10202210,
|
|
11111300,
|
|
|
|
#E
|
|
10201121,
|
|
10201121,
|
|
10201121,
|
|
10211120,
|
|
10202212,
|
|
10202212,
|
|
10202212,
|
|
11111300,
|
|
|
|
#M
|
|
11201121,
|
|
11201121,
|
|
11201121,
|
|
11211120,
|
|
11202212,
|
|
11202212,
|
|
11202212,
|
|
11111300,
|
|
|
|
#SECTION
|
|
#BRANCHSTART p,75,90
|
|
#N
|
|
1001200010012000,
|
|
1001200010012000,
|
|
11201121,
|
|
,
|
|
1001200010012000,
|
|
1001200010012000,
|
|
11110000,
|
|
#MEASURE 2/4
|
|
2222,
|
|
#MEASURE 4/4
|
|
01120112,
|
|
000000100000200000500000000000000008000000000000,
|
|
|
|
#E
|
|
1001200010012010,
|
|
1001200010012010,
|
|
1001200010012010,
|
|
1001200010102000,
|
|
1001200010012010,
|
|
1001200010012010,
|
|
11110000,
|
|
#MEASURE 2/4
|
|
2222,
|
|
#MEASURE 4/4
|
|
01120112,
|
|
000000100000200000500000000000000008000000000000,
|
|
|
|
#M
|
|
1001201010012010,
|
|
1001201010012010,
|
|
1101201011012010,
|
|
1001201010102000,
|
|
1001201010012010,
|
|
1001201010012010,
|
|
11110000,
|
|
#MEASURE 2/4
|
|
2222,
|
|
#MEASURE 4/4
|
|
0010102000111020,
|
|
000000100000200000500000000000000008000000000000,
|
|
|
|
#GOGOSTART
|
|
#SECTION
|
|
#BRANCHSTART p,75,90
|
|
#N
|
|
10201120,
|
|
10201120,
|
|
1212,
|
|
11201120,
|
|
30101011,
|
|
|
|
#E
|
|
10201121,
|
|
10201121,
|
|
10201120,
|
|
11201120,
|
|
30111011,
|
|
|
|
#M
|
|
10211121,
|
|
10211121,
|
|
10211121,
|
|
11211121,
|
|
30111011,
|
|
|
|
#SECTION
|
|
#BRANCHSTART p,75,90
|
|
#N
|
|
1111,
|
|
02222222,
|
|
1111,
|
|
02222222,
|
|
1111,
|
|
02222222,
|
|
10110101,
|
|
17000000,
|
|
00000008,
|
|
|
|
#E
|
|
1111,
|
|
02222222,
|
|
1111,
|
|
02222222,
|
|
1111,
|
|
02222222,
|
|
10110101,
|
|
17000000,
|
|
00000008,
|
|
|
|
#M
|
|
12121212,
|
|
02222222,
|
|
12121212,
|
|
02222222,
|
|
12121212,
|
|
02222222,
|
|
12110121,
|
|
17000000,
|
|
00000008,
|
|
|
|
#BRANCHEND
|
|
#GOGOEND
|
|
|
|
|
|
#END
|
|
|
|
|
|
COURSE:Normal
|
|
LEVEL:5
|
|
BALLOON:16,10,16
|
|
SCOREINIT:1080
|
|
SCOREDIFF:398
|
|
|
|
|
|
#START
|
|
|
|
|
|
100000000000200000000000000000000000200000000000,
|
|
100000000000200000000000000000000000200000000000,
|
|
100000000000200000000000000000000000200000000000,
|
|
000000000000200000000000000000000000200000000000,
|
|
100000000000200000000000000000000000200000000000,
|
|
100000000000200000000000000000000000200000000000,
|
|
000000000000200000000000000000000000200000000000,
|
|
000000000000200000000000200000000000200000000000,
|
|
#GOGOSTART
|
|
100000000000100000000000100000100000100000000000,
|
|
100000000000100000000000100000100000100000000000,
|
|
100000000000100000000000100000100000100000000000,
|
|
100000000000100000000000100000000000100000000000,
|
|
100000000000100000000000100000100000100000000000,
|
|
100000000000100000000000100000100000100000000000,
|
|
100000000000100000000000100000100000100000000000,
|
|
100000000000700000000000000000000000000000000000,
|
|
000000000000000000000000000000000000000000000800,
|
|
#GOGOEND
|
|
000000000000000000000000000000000000000000000000,
|
|
100000000000000000000000100000000000100000000000,
|
|
100000000000000000000000100000100000100000000000,
|
|
100000000000000000000000100000100000100000000000,
|
|
100000000000000000000000000000000000000000000000,
|
|
100000000000000000000000100000000000100000000000,
|
|
100000000000000000000000100000100000100000000000,
|
|
100000000000000000000000100000100000100000000000,
|
|
100000000000000000000000000000000000000000000000,
|
|
100000000000000000000000100000000000100000000000,
|
|
100000000000000000000000100000100000100000000000,
|
|
100000000000000000000000100000100000100000000000,
|
|
100000000000000000000000000000000000000000000000,
|
|
100000000000000000000000100000000000100000000000,
|
|
100000000000000000000000000000000000000000000000,
|
|
100000000000000000000000100000100000100000000000,
|
|
100000000000000000000000000000300000000000000000,
|
|
100000000000200000000000000000000000200000000000,
|
|
100000000000200000000000000000000000200000000000,
|
|
100000000000200000000000100000000000200000000000,
|
|
000000000000000000000000000000000000000000000000,
|
|
100000000000200000000000000000000000200000000000,
|
|
100000000000200000000000000000000000200000000000,
|
|
100000100000100000100000000000000000000000000000,
|
|
#MEASURE 2/4
|
|
200000200000200000200000,
|
|
#MEASURE 4/4
|
|
000000000000000000000000100000100000100000100000,
|
|
000000000000000000500000000000000800000000000000,
|
|
#GOGOSTART
|
|
100000000000200000000000100000100000100000000000,
|
|
100000000000200000000000100000100000100000000000,
|
|
100000100000100000000000100000100000100000000000,
|
|
100000100000100000000000000000000000000000000000,
|
|
300000000000100000000000000000100000100000000000,
|
|
700000000000000000000000000000000000000000000800,
|
|
000000000000000000000000000000000000000000000000,
|
|
100000000000100000000000100000000000100000000000,
|
|
000000000000000000000000000000000000000000000000,
|
|
100000000000100000000000100000000000100000000000,
|
|
000000000000000000000000000000000000000000000000,
|
|
100000000000100000100000000000100000000000100000,
|
|
000000100000700000000000000000000000000000000000,
|
|
000000000000000000000000000000000000000000000800,
|
|
#GOGOEND
|
|
|
|
|
|
#END
|
|
|
|
|
|
COURSE:Easy
|
|
LEVEL:3
|
|
SCOREINIT:860
|
|
SCOREDIFF:455
|
|
|
|
|
|
#START
|
|
|
|
|
|
100000000000000000000000000000000000200000000000,
|
|
100000000000000000000000000000000000200000000000,
|
|
100000000000000000000000000000000000200000000000,
|
|
000000000000200000000000000000000000200000000000,
|
|
100000000000000000000000000000000000200000000000,
|
|
100000000000000000000000000000000000200000000000,
|
|
000000000000200000000000000000000000200000000000,
|
|
000000000000000000000000000000000000000000000000,
|
|
#GOGOSTART
|
|
100000000000000000000000100000000000100000000000,
|
|
100000000000000000000000100000000000100000000000,
|
|
100000000000000000000000100000000000000000000000,
|
|
100000000000000000000000000000000000000000000000,
|
|
100000000000000000000000100000000000100000000000,
|
|
100000000000000000000000100000000000100000000000,
|
|
100000000000000000000000100000000000000000100000,
|
|
000000000000300000000000000000000000000000000000,
|
|
100000000000100000000000000000000000000000000000,
|
|
#GOGOEND
|
|
000000000000000000000000000000000000000000000000,
|
|
100000000000000000000000100000000000100000000000,
|
|
100000000000000000000000100000000000100000000000,
|
|
100000000000000000000000100000000000000000000000,
|
|
100000000000100000000000100000000000000000000000,
|
|
200000000000000000000000200000000000200000000000,
|
|
200000000000000000000000200000000000000000000000,
|
|
200000000000000000000000200000000000200000000000,
|
|
200000000000000000000000000000000000000000000000,
|
|
100000000000000000000000100000000000100000000000,
|
|
100000000000000000000000100000000000100000000000,
|
|
100000000000000000000000100000000000000000000000,
|
|
100000000000000000000000000000000000000000000000,
|
|
200000000000000000000000200000000000200000000000,
|
|
200000000000000000000000200000000000200000000000,
|
|
200000000000000000000000200000000000000000000000,
|
|
100000000000100000000000000000300000000000000000,
|
|
000000000000200000000000000000000000200000000000,
|
|
000000000000200000000000000000000000200000000000,
|
|
000000000000200000000000000000000000200000000000,
|
|
000000000000000000000000000000000000000000000000,
|
|
000000000000200000000000000000000000200000000000,
|
|
000000000000200000000000000000000000200000000000,
|
|
300000000000300000000000000000000000000000000000,
|
|
#MEASURE 2/4
|
|
400000000000400000000000,
|
|
#MEASURE 4/4
|
|
000000000000000000000000100000000000000000000000,
|
|
100000000000000000000000000000000000000000000000,
|
|
#GOGOSTART
|
|
100000000000100000000000100000000000000000000000,
|
|
100000000000100000000000100000000000000000000000,
|
|
100000000000000000000000100000000000000000000000,
|
|
100000000000000000000000000000000000000000000000,
|
|
300000000000000000000000000000000000100000000000,
|
|
100000000000000000000000100000000000000000000000,
|
|
000000000000200000000000200000000000000000000000,
|
|
100000000000000000000000100000000000000000000000,
|
|
000000000000200000000000200000000000000000000000,
|
|
100000000000000000000000100000000000000000000000,
|
|
000000000000200000000000200000000000000000000000,
|
|
100000000000000000000000100000000000000000000000,
|
|
500000000000000000000000000000000000000000000000,
|
|
000000000000000000000000800000000000000000000000,
|
|
#GOGOEND
|
|
|
|
|
|
#END
|
|
|