291 lines
12 KiB
Plaintext
291 lines
12 KiB
Plaintext
//TJADB Project
|
|
TITLE:GENGHIS KHAN
|
|
TITLEJA:ジンギスカン(GENGHIS KHAN)
|
|
SUBTITLE:--Dschinghis Khan
|
|
BPM:142
|
|
WAVE:GENGHIS KHAN.ogg
|
|
OFFSET:-3.706
|
|
DEMOSTART:44.260
|
|
|
|
COURSE:Oni
|
|
LEVEL:6
|
|
|
|
|
|
#START
|
|
|
|
|
|
100000000000200000200000100000000000200000200000,
|
|
100000000000200000200000100000000000200000200000,
|
|
100000000000000000000000200000000000000000000000,
|
|
100000000000000000000000200000000000000000000000,
|
|
100000000000200000200000100000000000200000200000,
|
|
100000000000200000200000100000000000200000200000,
|
|
100000000000200000000000100000000000200000000000,
|
|
100000000000200000000000100000000000200000000000,
|
|
100000100000100000200000100000100100100000200000,
|
|
100000100000100000200000100000100100100000200000,
|
|
100000000000100000200200100000000000100000200200,
|
|
100000000000100000200200100000000000100000200200,
|
|
100000100100100000200000100000100100100000200000,
|
|
100000100100100000200000100000100100100000200000,
|
|
100000000000100000200200100000000000100000200200,
|
|
100000000000100000200200100000000000100000200200,
|
|
100000100100100000200000100000100000100000200000,
|
|
100000100100100000200000100000100100200000200000,
|
|
100000100100100000200000100000100000100000200000,
|
|
100000100100100000200000100000100100200000200000,
|
|
100000100100100000200000100100000100100000200000,
|
|
100000100100100000200000100100000100100000200000,
|
|
100000100100100000200000100100000100100000200000,
|
|
100000000000400000000000100000000000400000000000,
|
|
100000000000200000200000100000000000200000200000,
|
|
100000100100100000200000100100100000100000100100,
|
|
100000100100100000200000100000100100100000200000,
|
|
100000100100100000200000100000200200200000200000,
|
|
100000000000200000200000100000000000200000200000,
|
|
100000100100100000200000100100100000100000100100,
|
|
100000100100100000200000100000100100100000200000,
|
|
100000100100100000200000100000200200200000200000,
|
|
100000100000100000200000100000100000000000000000,
|
|
100000200200200000200000200200000200200000200000,
|
|
100000100000100000200000100000100000000000000000,
|
|
100000200200200000200000200200000200200200200000,
|
|
100000000000200000200000100000000000200000200000,
|
|
100000000000200000200000100000000000200000200000,
|
|
100000000000000000000000100000000000000000000000,
|
|
100000100100200000200000100100000100100000200000,
|
|
300000000000200000200000300000000000200000200000,
|
|
100000100100100000100000100100100200100100100200,
|
|
100000100100100000200000100000100100100000200000,
|
|
100000100100100000200000100000200200200000200000,
|
|
300000000000200000200000300000000000200000200000,
|
|
100000100100100000100000100100100200100100100200,
|
|
100000100100100000200000100000100100100000200000,
|
|
100000100100100000200000100000200200200000200000,
|
|
100000100000100000200000100000100000000000000000,
|
|
100000200200200000200000200200000200200000200000,
|
|
100000100000100000200000100000100000000000000000,
|
|
100000200200200000200000200200000200200200200000,
|
|
100000100000100000200000100000100000100000200000,
|
|
100000100100100000200000100000100100100000200000,
|
|
100000100100100000100100100000100100100000200000,
|
|
100000100100100000100100100000100100100000200000,
|
|
300000000000000000000000000000000000000000000000,
|
|
|
|
|
|
#END
|
|
|
|
|
|
COURSE:Hard
|
|
LEVEL:4
|
|
SCOREINIT:590
|
|
SCOREDIFF:410
|
|
|
|
|
|
#START
|
|
|
|
|
|
100000000000200000200000100000000000200000200000,
|
|
100000000000200000200000100000000000200000200000,
|
|
100000000000000000000000200000000000000000000000,
|
|
100000000000000000000000200000000000000000000000,
|
|
100000000000200000200000100000000000200000200000,
|
|
100000000000200000200000100000000000200000200000,
|
|
100000000000200000000000100000000000200000000000,
|
|
100000000000200000000000100000000000200000000000,
|
|
100000100000100000200000100000100100100000200000,
|
|
100000100000100000200000100000100100100000200000,
|
|
100000000000000000000000200000000000000000000000,
|
|
100000000000000000000000200000000000000000000000,
|
|
100000100000100000200000100000100100100000200000,
|
|
100000100000100000200000100000100100100000200000,
|
|
100000000000000000000000200000000000000000000000,
|
|
100000000000000000000000200000000000000000000000,
|
|
100000100100100000200000100000100000100000200000,
|
|
100000100100100000200000100000100000100000200000,
|
|
100000100100100000200000100000100000100000200000,
|
|
100000100100100000200000100000100000100000200000,
|
|
100000000000100000000000100000000000200000000000,
|
|
100000000000200000000000100000000000200000000000,
|
|
100000100100100000200000100000100100100000200000,
|
|
100000000000400000000000100000000000400000000000,
|
|
100000000000000000000000100000000000000000000000,
|
|
100000100100100000100000000000000000200000000000,
|
|
100000100100100000200000100000100100100000200000,
|
|
100000100100100000200000100000200200200000200000,
|
|
300000000000000000000000300000000000000000000000,
|
|
100000100100100000100000000000000000200000000000,
|
|
100000100100100000200000100000100100100000200000,
|
|
100000100100100000200000100000200200200000200000,
|
|
100000100000100000200000100000100000000000000000,
|
|
200000200200200000200000000000000000200000000000,
|
|
100000100000100000200000100000100000000000000000,
|
|
200000200200200000200000000000000000200000000000,
|
|
100000000000200000200000100000000000200000200000,
|
|
100000000000200000200000100000000000200000200000,
|
|
100000000000000000000000100000000000000000000000,
|
|
100000100000100000200000100000100000100000200000,
|
|
300000000000000000000000300000000000000000000000,
|
|
100000100100100000100000000000000000200000000000,
|
|
100000100100100000200000100000100100100000200000,
|
|
100000100100100000200000100000200200200000200000,
|
|
300000000000000000000000300000000000000000000000,
|
|
100000100100100000100000000000000000200000000000,
|
|
100000100100100000200000100000100100100000200000,
|
|
100000100100100000200000100000200200200000200000,
|
|
100000100000100000200000100000100000000000000000,
|
|
200000200200200000200000000000000000200000000000,
|
|
100000100000100000200000100000100000000000000000,
|
|
200000200200200000200000000000000000200000000000,
|
|
100000100000100000200000100000100000100000200000,
|
|
100000100100100000200000100000100100100000200000,
|
|
100000100100100000100100100000100100100000200000,
|
|
100000100100100000100100100000100100100000200000,
|
|
300000000000000000000000000000000000000000000000,
|
|
|
|
|
|
#END
|
|
|
|
|
|
COURSE:Normal
|
|
LEVEL:3
|
|
SCOREINIT:930
|
|
SCOREDIFF:250
|
|
|
|
|
|
#START
|
|
|
|
|
|
100000000000000000000000200000000000000000000000,
|
|
100000000000000000000000200000000000000000000000,
|
|
100000000000000000000000200000000000000000000000,
|
|
100000000000000000000000200000000000000000000000,
|
|
100000000000000000000000200000000000000000000000,
|
|
100000000000000000000000200000000000000000000000,
|
|
100000000000200000000000100000000000200000000000,
|
|
100000000000200000000000100000000000200000000000,
|
|
100000000000000000000000100000000000000000000000,
|
|
100000000000100000000000100000000000000000000000,
|
|
100000000000000000000000200000000000000000000000,
|
|
100000000000000000000000200000000000000000000000,
|
|
100000000000000000000000100000000000000000000000,
|
|
100000000000100000000000100000000000000000000000,
|
|
100000000000000000000000200000000000000000000000,
|
|
100000000000000000000000200000000000000000000000,
|
|
100000000000100000000000100000000000000000000000,
|
|
100000000000100000100000000000000000000000000000,
|
|
100000000000100000000000100000000000000000000000,
|
|
100000000000100000100000000000000000000000000000,
|
|
100000000000100000000000100000000000200000000000,
|
|
100000000000200000000000100000000000200000000000,
|
|
100000000000000000000000100000000000000000000000,
|
|
100000000000400000000000100000000000400000000000,
|
|
100000000000000000000000100000000000000000000000,
|
|
100000000000100000100000000000000000200000000000,
|
|
100000000000100000100000100000000000100000100000,
|
|
100000000000100000100000100000000000100000100000,
|
|
300000000000000000000000300000000000000000000000,
|
|
100000000000100000100000000000000000200000000000,
|
|
100000000000100000100000100000000000100000100000,
|
|
100000000000100000100000100000000000100000100000,
|
|
100000000000100000000000100000100000000000000000,
|
|
100000100000100000100000000000000000200000000000,
|
|
100000000000100000000000100000100000000000000000,
|
|
100000100000100000100000000000000000200000000000,
|
|
100000000000000000000000100000000000000000000000,
|
|
100000000000100000000000100000000000200000000000,
|
|
100000000000000000000000100000000000000000000000,
|
|
100000000000100000000000100000000000200000000000,
|
|
300000000000000000000000300000000000000000000000,
|
|
100000000000100000100000000000000000200000000000,
|
|
100000000000100000100000100000000000100000100000,
|
|
100000000000100000100000100000000000100000100000,
|
|
300000000000000000000000300000000000000000000000,
|
|
100000000000100000100000000000000000200000000000,
|
|
100000000000100000100000100000000000100000100000,
|
|
100000000000100000100000100000000000100000100000,
|
|
100000000000100000000000100000100000000000000000,
|
|
100000100000100000100000000000000000200000000000,
|
|
100000000000100000000000100000100000000000000000,
|
|
100000100000100000100000000000000000200000000000,
|
|
100000000000100000000000100000000000200000000000,
|
|
100000000000200000000000100000000000200000000000,
|
|
100000000000000000000000100000000000000000000000,
|
|
100000000000100000000000100000000000100000000000,
|
|
300000000000000000000000000000000000000000000000,
|
|
|
|
|
|
#END
|
|
|
|
|
|
COURSE:Easy
|
|
LEVEL:2
|
|
SCOREINIT:890
|
|
SCOREDIFF:270
|
|
|
|
|
|
#START
|
|
|
|
|
|
100000000000000000000000100000000000000000000000,
|
|
100000000000000000000000100000000000000000000000,
|
|
100000000000000000000000100000000000000000000000,
|
|
100000000000000000000000100000000000000000000000,
|
|
100000000000000000000000100000000000000000000000,
|
|
100000000000000000000000100000000000000000000000,
|
|
100000000000100000000000100000000000100000000000,
|
|
100000000000100000000000100000000000100000000000,
|
|
100000000000000000000000100000000000000000000000,
|
|
100000000000000000000000100000000000000000000000,
|
|
100000000000000000000000200000000000000000000000,
|
|
100000000000000000000000200000000000000000000000,
|
|
100000000000000000000000100000000000000000000000,
|
|
100000000000000000000000100000000000000000000000,
|
|
100000000000000000000000200000000000000000000000,
|
|
100000000000000000000000200000000000000000000000,
|
|
100000000000100000000000100000000000000000000000,
|
|
100000000000000000000000100000000000000000000000,
|
|
100000000000100000000000100000000000000000000000,
|
|
100000000000000000000000100000000000000000000000,
|
|
100000000000000000000000100000000000000000000000,
|
|
100000000000000000000000100000000000000000000000,
|
|
100000000000000000000000100000000000000000000000,
|
|
100000000000400000000000100000000000400000000000,
|
|
100000000000000000000000100000000000000000000000,
|
|
100000000000100000100000000000000000000000000000,
|
|
100000000000100000100000100000000000000000000000,
|
|
100000000000100000100000100000000000000000000000,
|
|
100000000000000000000000100000000000000000000000,
|
|
100000000000100000100000000000000000000000000000,
|
|
100000000000100000100000100000000000000000000000,
|
|
100000000000100000100000100000000000000000000000,
|
|
100000000000000000000000100000000000000000000000,
|
|
100000100000100000100000000000000000000000000000,
|
|
100000000000000000000000100000000000000000000000,
|
|
100000100000100000100000000000000000000000000000,
|
|
100000000000000000000000100000000000000000000000,
|
|
100000000000000000000000100000000000000000000000,
|
|
100000000000000000000000100000000000000000000000,
|
|
000000000000000000000000000000000000000000000000,
|
|
300000000000000000000000300000000000000000000000,
|
|
100000000000100000100000000000000000000000000000,
|
|
100000000000100000100000100000000000000000000000,
|
|
100000000000100000100000100000000000000000000000,
|
|
300000000000000000000000300000000000000000000000,
|
|
100000000000100000100000000000000000000000000000,
|
|
100000000000100000100000100000000000000000000000,
|
|
100000000000100000100000100000000000000000000000,
|
|
100000000000000000000000100000000000000000000000,
|
|
100000100000100000100000000000000000000000000000,
|
|
100000000000000000000000100000000000000000000000,
|
|
100000100000100000100000000000000000000000000000,
|
|
100000000000100000000000100000000000000000000000,
|
|
100000000000100000000000100000000000000000000000,
|
|
100000000000100000000000100000000000000000000000,
|
|
100000000000100000000000100000000000000000000000,
|
|
300000000000000000000000000000000000000000000000,
|
|
|
|
|
|
#END
|
|
|