317 lines
3.0 KiB
Plaintext
317 lines
3.0 KiB
Plaintext
//TJADB Project
|
|
TITLE:Glass o Ware!
|
|
TITLEJA:ガラスを割れ!
|
|
SUBTITLE:--Sakurazaka46/Docomo Student Discounts
|
|
BPM:164
|
|
WAVE:Glass o Ware!.ogg
|
|
OFFSET:-2.051
|
|
DEMOSTART:62.046
|
|
|
|
COURSE:Oni
|
|
LEVEL:6
|
|
SCOREINIT:700
|
|
SCOREDIFF:190
|
|
|
|
|
|
#START
|
|
|
|
|
|
,
|
|
0400,
|
|
0400,
|
|
,
|
|
,
|
|
0400,
|
|
0400,
|
|
|
|
#GOGOSTART
|
|
1010001000101022,
|
|
1010001000101022,
|
|
1000400000001022,
|
|
1000400000001022,
|
|
1010001000101022,
|
|
1010001000101022,
|
|
11411011,
|
|
0010401011101110,
|
|
|
|
#GOGOEND
|
|
10111022,
|
|
1000101020222000,
|
|
10111022,
|
|
1000101020222000,
|
|
10111022,
|
|
1000101020222000,
|
|
10111022,
|
|
1000101020222000,
|
|
10221021,
|
|
1000202010222000,
|
|
10221021,
|
|
1000202010222000,
|
|
10221021,
|
|
1000202010222000,
|
|
10221021,
|
|
1000202010222000,
|
|
10011020,
|
|
1022201010002000,
|
|
10011020,
|
|
1022201010002000,
|
|
1011101110111020,
|
|
1011101110111020,
|
|
1011101110111020,
|
|
1011101110111020,
|
|
500000000000000000000000000000000000000000000008,
|
|
0440,
|
|
|
|
#GOGOSTART
|
|
1110222010004000,
|
|
1110222010004000,
|
|
1022202010002000,
|
|
1022201000202000,
|
|
1110222010004000,
|
|
1110222010004000,
|
|
1022202010002000,
|
|
1022201000404000,
|
|
33030330,
|
|
3030003000303022,
|
|
500000000008000000200200500000000008000000200200,
|
|
500000000008000000200200500000000008000000000000,
|
|
1110222010004000,
|
|
1110222010004000,
|
|
|
|
#GOGOEND
|
|
3111,
|
|
1011101020002000,
|
|
3020202020002011,
|
|
12022020,
|
|
|
|
|
|
#END
|
|
|
|
|
|
COURSE:Hard
|
|
LEVEL:4
|
|
SCOREINIT:860
|
|
SCOREDIFF:250
|
|
|
|
|
|
#START
|
|
|
|
|
|
,
|
|
0400,
|
|
0400,
|
|
,
|
|
,
|
|
0400,
|
|
0400,//7
|
|
|
|
#GOGOSTART
|
|
11010110,
|
|
11010110,
|
|
0400,
|
|
0400,
|
|
11010110,
|
|
11010110,
|
|
0400,
|
|
0400,//15
|
|
|
|
#GOGOEND
|
|
10111020,
|
|
10112020,
|
|
10111020,
|
|
10112020,
|
|
10111020,
|
|
10112020,
|
|
10111020,
|
|
10112020,
|
|
10221020,
|
|
10112020,
|
|
10221020,
|
|
10112020,
|
|
10221020,
|
|
10112020,
|
|
10221020,
|
|
10112020,
|
|
10011020,
|
|
10011020,
|
|
10011020,
|
|
10011020,
|
|
10101012,
|
|
10101012,
|
|
10101012,
|
|
10101012,
|
|
500000000000000000000000000000000000000000000008,
|
|
0440,//41
|
|
|
|
#GOGOSTART
|
|
11112000,
|
|
11112000,
|
|
10221020,
|
|
10000220,
|
|
11112000,
|
|
11112000,
|
|
10221020,
|
|
10000220,
|
|
33030330,
|
|
33030330,
|
|
44,
|
|
44,
|
|
11112000,
|
|
11112000,//55
|
|
|
|
#GOGOEND
|
|
3,
|
|
0022,
|
|
3,
|
|
0022,
|
|
,
|
|
#END
|
|
|
|
COURSE:Normal
|
|
LEVEL:4
|
|
BALLOON:6,6
|
|
|
|
#START
|
|
,
|
|
0400,
|
|
0400,
|
|
,
|
|
,
|
|
0400,
|
|
0400,//7
|
|
|
|
#GOGOSTART
|
|
1,
|
|
1,
|
|
0400,
|
|
0400,
|
|
1,
|
|
1,
|
|
0400,
|
|
0400,//15
|
|
|
|
#GOGOEND
|
|
11,
|
|
1110,
|
|
11,
|
|
1110,
|
|
11,
|
|
1110,
|
|
7,
|
|
8,
|
|
11,
|
|
1120,
|
|
11,
|
|
1120,
|
|
11,
|
|
1120,
|
|
7,
|
|
8,
|
|
1002,
|
|
1002,
|
|
1002,
|
|
1002,
|
|
1011,
|
|
1011,
|
|
1011,
|
|
1011,
|
|
500000000000000000000000000000000000000000000008,
|
|
,//41
|
|
|
|
#GOGOSTART
|
|
1120,
|
|
11102000,
|
|
32,
|
|
30000220,
|
|
1120,
|
|
11102000,
|
|
5,
|
|
000000000000000000000008000000000000000000000000,
|
|
3,
|
|
3,
|
|
33,
|
|
33,
|
|
1120,
|
|
11102000,//55
|
|
|
|
#GOGOEND
|
|
3,
|
|
0022,
|
|
3,
|
|
0022,
|
|
,
|
|
#END
|
|
|
|
COURSE:Easy
|
|
LEVEL:3
|
|
|
|
#START
|
|
,
|
|
0400,
|
|
0400,
|
|
,
|
|
,
|
|
0400,
|
|
0400,//7
|
|
|
|
#GOGOSTART
|
|
1,
|
|
1,
|
|
0400,
|
|
0400,
|
|
1,
|
|
1,
|
|
0400,
|
|
0400,//15
|
|
|
|
#GOGOEND
|
|
11,
|
|
1,
|
|
11,
|
|
1,
|
|
11,
|
|
1,
|
|
7,
|
|
8,
|
|
11,
|
|
1,
|
|
11,
|
|
1,
|
|
11,
|
|
1,
|
|
7,
|
|
8,
|
|
1,
|
|
2,
|
|
1,
|
|
2,
|
|
11,
|
|
12,
|
|
11,
|
|
12,
|
|
500000000000000000000000000000000000000000000008,
|
|
,//41
|
|
|
|
#GOGOSTART
|
|
1110,
|
|
1110,
|
|
3,
|
|
3,
|
|
1110,
|
|
1110,
|
|
5,
|
|
000000000000000000000008000000000000000000000000,
|
|
3,
|
|
3,
|
|
33,
|
|
33,
|
|
1110,
|
|
1110,//55
|
|
|
|
#GOGOEND
|
|
3,
|
|
02,
|
|
3,
|
|
0022,
|
|
,
|
|
#END |