Files
ESE/01 Pop/Hadaka no Kokoro/Hadaka no Kokoro.tja
T
2023-06-15 19:15:39 -05:00

200 lines
6.4 KiB
Plaintext

//TJADB Project
TITLE:Hadaka no Kokoro
TITLEJA:裸の心
SUBTITLE:--Aimyon & Tomi Yo
SUBTITLEJA:TBS系 火曜ドラマ「私の家政夫ナギサさん」主題歌
BPM:74
WAVE:Hadaka no Kokoro.ogg
OFFSET:-5.789
DEMOSTART:72.275
COURSE:Oni
LEVEL:7
SCOREINIT:1590
SCOREDIFF:565
#START
100100000000200000000100100000000000000000000000,
100100000000200000100000100000000000100100200000,
100000000000000000000000100000000000200000000000,
500000000000000000000000000000000000000008000000,
100000100000100100100000200000000000000000000200,
100000000000200000100100200000000000000000000000,
100000100000200000100100100000000000000000000100,
100000000100100100000100200000000000200000000000,
100000100000100100100000200000000000000000000200,
100000000000200000100100200000000000200000000000,
100000100000200000100100100000000000000000000100,
100200000000100000100200100000000000200000200000,
#MEASURE 2/4
000000200000200000000000,
#MEASURE 4/4
100000200000100000100100000000100000200000100100,
100000100000200000100000000000000000200000100000,
100000200000100000200100000000100000200000100000,
100000100000200000100000100100100000200000000000,
100000200000100000100000100000200000100000200000,
100000100000200000100000000000000000200200100100,
500000000000000000000008000000300000000000400000,
600000000000000000000000000000000008000000000000,
#GOGOSTART
100100100000200000100100100000100000200000000100,
100000200000100010002000100000100200100010002000,
100000100200100010002000100000100000200000000100,
100000200000100100000000300000300000400000000000,
100100100000200000100100100000100000200000000100,
100000200000100010002000100000100200100100000200,
100100100000200000000000300000000000400000100000,
500000000000000000000000000000000000000008000000,
#GOGOEND
#END
COURSE:Hard
LEVEL:5
SCOREINIT:7120
SCOREDIFF:0
#START
100000000000200000000000100000000000000000000000,
100000000000200000200000100000000000200000000000,
100000000000000000000000100000000000200000000000,
500000000000000000000000000000000000000008000000,
100000100000100100100000200000000000000000000000,
100000000000200000200000100000000000000000000000,
100000100000200000100000100000000000000000000000,
100000000000100000100000200000000000000000000000,
100000100000100100100000200000000000000000000000,
100000000000200000200000100000000000000000000000,
100000100000200000100000100000000000000000000000,
100000200000100000100000100000000000200000200000,
#MEASURE 2/4
000000200000200000000000,
#MEASURE 4/4
100000000000100000100100000000100000200000000000,
100000000000200000100000000000000000200000000000,
100000000000100000100100000000100000200000000000,
100000100000200000100000100100100000200000000000,
100000000000200000100000100000000000200000100000,
100000100000200000100000000000000000100000200000,
500000000000000000000008000000300000000000400000,
600000000000000000000000000000000008000000000000,
#GOGOSTART
100000100000200000100100100000000000200000000000,
100000100000200000000000100000000000100010002000,
100000000000100010002000100000000000200000000000,
100000100000100100000000300000300000400000000000,
100000100000200000100100100000000000200000000000,
100000100000200000000000100000000000200200000100,
100100100000200000000000300000000000400000000000,
500000000000000000000000000000000000000008000000,
#GOGOEND
#END
COURSE:Normal
LEVEL:2
SCOREINIT:11820
SCOREDIFF:0
#START
100000000000000000000000100000000000000000000000,
100000000000000000000000100000000000200000000000,
100000000000000000000000100000000000100000000000,
500000000000000000000000000000000000000008000000,
100000000000100000000000200000000000000000000000,
100000000000200000000000100000000000000000000000,
100000000000200000000000100000000000000000000000,
100000000000100000000000100000000000000000000000,
100000000000100000000000200000000000000000000000,
100000000000200000000000100000000000000000000000,
100000000000200000000000100000000000000000000000,
100000000000100000000000100000000000000000000000,
#MEASURE 2/4
000000000000000000000000,
#MEASURE 4/4
100000000000100000000000000000000000200000000000,
100000000000000000000000000000000000200000000000,
100000000000100000000000000000000000200000000000,
100000000000000000000000100000000000200000000000,
100000000000100000000000100000000000100000000000,
100000000000000000100000000000000000200000000000,
600000000000000008000000000000300000000000300000,
600000000000000000000000000000000008000000000000,
#GOGOSTART
100000000000100000100000100000000000200000000000,
100000100000100000000000100000000000200000000000,
100000000000200000000000100000000000200000000000,
100000100000100000000000300000000000000000000000,
100000000000100000100000100000000000200000000000,
100000100000100000000000100000000000200000000000,
100000000000200000000000300000000000400000000000,
500000000000000000000000000000000000000008000000,
#GOGOEND
#END
COURSE:Easy
LEVEL:1
SCOREINIT:17750
SCOREDIFF:0
#START
100000000000000000000000000000000000000000000000,
100000000000000000000000100000000000000000000000,
100000000000000000000000100000000000000000000000,
500000000000000000000000000008000000000000000000,
100000000000000000000000200000000000000000000000,
100000000000000000000000100000000000000000000000,
100000000000000000000000100000000000000000000000,
100000000000100000000000100000000000000000000000,
100000000000000000000000200000000000000000000000,
100000000000000000000000100000000000000000000000,
100000000000000000000000100000000000000000000000,
100000000000100000000000100000000000000000000000,
#MEASURE 2/4
000000000000000000000000,
#MEASURE 4/4
100000000000100000000000000000000000100000000000,
100000000000000000000000000000000000000000000000,
100000000000100000000000000000000000100000000000,
100000000000000000000000100000000000000000000000,
100000000000100000000000100000000000000000000000,
100000000000000000100000000000000000000000000000,
600000000000000000000000000008000000000000000000,
600000000000000000000000000008000000000000000000,
#GOGOSTART
100000000000100000000000100000000000000000000000,
100000000000100000000000100000000000000000000000,
100000000000000000000000200000000000000000000000,
100000000000100000000000300000000000000000000000,
100000000000100000000000100000000000000000000000,
100000000000100000000000100000000000000000000000,
100000000000000000000000400000000000000000000000,
500000000000000000000000000000000000000008000000,
#GOGOEND
#END