449 lines
4.8 KiB
Plaintext
449 lines
4.8 KiB
Plaintext
//TJADB Project
|
|
TITLE:Hello, world!
|
|
TITLEJA:Hello,world!
|
|
SUBTITLE:--BUMP OF CHICKEN/Blood Blockade Battlefront
|
|
BPM:211
|
|
WAVE:Hello, world!.ogg
|
|
OFFSET:-2.115
|
|
DEMOSTART:56.421
|
|
|
|
COURSE:Oni
|
|
LEVEL:7
|
|
BALLOON:6,7
|
|
SCOREINIT:710
|
|
SCOREDIFF:193
|
|
|
|
|
|
#START
|
|
|
|
|
|
#MEASURE 2/4
|
|
#BARLINEOFF
|
|
2202,
|
|
#MEASURE 4/4
|
|
#BARLINEON
|
|
00220022,
|
|
00002202,
|
|
00202202,
|
|
02200220,
|
|
20202022,
|
|
02000222,
|
|
00202202,
|
|
02002202,
|
|
00220022,
|
|
00002202,
|
|
00202022,
|
|
02002202,
|
|
00200022,
|
|
0202,
|
|
12021202,
|
|
12123300,
|
|
|
|
#GOGOSTART
|
|
1000100011101020,
|
|
01201122,
|
|
2000100022201020,
|
|
0010202220101010,
|
|
1000100011101020,
|
|
01201122,
|
|
1010201022201020,
|
|
0010222030300000,
|
|
|
|
#GOGOEND
|
|
1111,
|
|
10101011,
|
|
1111,
|
|
10101011,
|
|
11101010,
|
|
10101011,
|
|
11101010,
|
|
10101111,
|
|
11401021,
|
|
01201121,
|
|
01201021,
|
|
01201050,
|
|
000008000000200000000000000000000000500000000000,
|
|
000008000000200000000000000000000000100000000000,
|
|
12021250,
|
|
000000000000000008000000000000000000200200200000,
|
|
10210210,
|
|
01201021,
|
|
10210210,
|
|
0010200010002220,
|
|
10210210,
|
|
01201021,
|
|
1020201020201022,
|
|
22104400,
|
|
|
|
#GOGOSTART
|
|
10210121,
|
|
01201022,
|
|
11210121,
|
|
01201022,
|
|
11221122,
|
|
1010202010102220,
|
|
1010222010102210,
|
|
01211121,
|
|
10210121,
|
|
01201022,
|
|
11210121,
|
|
01201021,
|
|
11211121,
|
|
1010201010102210,
|
|
1010221010102210,
|
|
01211122,
|
|
|
|
#GOGOEND
|
|
10210120,
|
|
11210120,
|
|
11210120,
|
|
1020102011201120,
|
|
|
|
#GOGOSTART
|
|
33030303,
|
|
03030600,
|
|
000000000000000008000000500000000000000008000000,
|
|
7008,
|
|
33030303,
|
|
03030600,
|
|
000000000000000008000000500000000000000008000000,
|
|
7008,
|
|
|
|
#GOGOEND
|
|
1000100011101020,
|
|
01204400,
|
|
|
|
|
|
#END
|
|
|
|
|
|
COURSE:Hard
|
|
LEVEL:6
|
|
BALLOON:5,6
|
|
SCOREINIT:650
|
|
SCOREDIFF:188
|
|
|
|
|
|
#START
|
|
|
|
|
|
#MEASURE 2/4
|
|
#BARLINEOFF
|
|
2202,
|
|
#MEASURE 4/4
|
|
#BARLINEON
|
|
00220022,
|
|
00002202,
|
|
00202202,
|
|
02200220,
|
|
20202022,
|
|
02000222,
|
|
00202202,
|
|
02002202,
|
|
00220022,
|
|
00002202,
|
|
00202022,
|
|
02002202,
|
|
00200022,
|
|
0202,
|
|
22020202,
|
|
02003300,
|
|
|
|
#GOGOSTART
|
|
30303012,
|
|
01101120,
|
|
40404012,
|
|
01122110,
|
|
30303012,
|
|
01101120,
|
|
40404012,
|
|
01103300,
|
|
|
|
#GOGOEND
|
|
1111,
|
|
10101011,
|
|
1111,
|
|
10101011,
|
|
11101010,
|
|
10101011,
|
|
11101010,
|
|
10101011,
|
|
11401021,
|
|
01201011,
|
|
10201021,
|
|
01201050,
|
|
000008000000200000000000000000000000500000000000,
|
|
000008000000200000000000000000000000100000000000,
|
|
12010150,
|
|
000000000000000008000000000000000000200000000000,
|
|
10010010,
|
|
01201020,
|
|
10010010,
|
|
01201022,
|
|
10010010,
|
|
01201020,
|
|
5,
|
|
000008000000200000000000400000400000000000000000,
|
|
|
|
#GOGOSTART
|
|
10210111,
|
|
01201022,
|
|
10210111,
|
|
01201022,
|
|
10111022,
|
|
10111022,
|
|
10111021,
|
|
01201121,
|
|
10210111,
|
|
01201022,
|
|
10210111,
|
|
01201022,
|
|
10112022,
|
|
10112022,
|
|
10112021,
|
|
01210121,
|
|
|
|
#GOGOEND
|
|
10210120,
|
|
10210120,
|
|
10210120,
|
|
10201212,
|
|
|
|
#GOGOSTART
|
|
33030303,
|
|
03030600,
|
|
000000000000000008000000500000000000000008000000,
|
|
7008,
|
|
33030303,
|
|
03030600,
|
|
000000000000000008000000500000000000000008000000,
|
|
7008,
|
|
|
|
#GOGOEND
|
|
30303012,
|
|
01104400,
|
|
|
|
|
|
#END
|
|
|
|
|
|
COURSE:Normal
|
|
LEVEL:5
|
|
BALLOON:11,10,21,22
|
|
SCOREINIT:1490
|
|
SCOREDIFF:933
|
|
|
|
|
|
#START
|
|
|
|
|
|
#MEASURE 2/4
|
|
#BARLINEOFF
|
|
#SCROLL 0.9
|
|
,
|
|
#MEASURE 4/4
|
|
#BARLINEON
|
|
3,
|
|
,
|
|
,
|
|
,
|
|
11,
|
|
,
|
|
11,
|
|
,
|
|
10001001,
|
|
,
|
|
10001001,
|
|
05,
|
|
00080050,
|
|
00080000,
|
|
7,
|
|
08,
|
|
|
|
#GOGOSTART
|
|
30303001,
|
|
01,
|
|
30303001,
|
|
01,
|
|
30303001,
|
|
01,
|
|
30303001,
|
|
04,
|
|
|
|
#GOGOEND
|
|
10000001,
|
|
01000000,
|
|
10000001,
|
|
01000000,
|
|
10001001,
|
|
01000000,
|
|
10001001,
|
|
01000000,
|
|
10400001,
|
|
01000000,
|
|
10000001,
|
|
01005000,
|
|
000000000000000008000000000000000000500000000000,
|
|
000000000000000008000000000000000000000000000000,
|
|
7,
|
|
08,
|
|
10010010,
|
|
02,
|
|
10010010,
|
|
02,
|
|
10010010,
|
|
0022,
|
|
5,
|
|
000000000000000008000000000000000000000000000000,
|
|
|
|
#GOGOSTART
|
|
30001001,
|
|
0100,
|
|
10001001,
|
|
0102,
|
|
0202,
|
|
0205,
|
|
,
|
|
000008000000000000000000000000000000000000000000,
|
|
10001001,
|
|
0100,
|
|
10001001,
|
|
0102,
|
|
0202,
|
|
0205,
|
|
,
|
|
000008000000000000000000000000000000000000000000,
|
|
|
|
#GOGOEND
|
|
1001,
|
|
1001,
|
|
11,
|
|
24,
|
|
|
|
#GOGOSTART
|
|
9,
|
|
,
|
|
0900,
|
|
8,
|
|
9,
|
|
,
|
|
0900,
|
|
8,
|
|
|
|
#GOGOEND
|
|
30303001,
|
|
04,
|
|
|
|
|
|
#END
|
|
|
|
|
|
COURSE:Easy
|
|
LEVEL:4
|
|
BALLOON:8,7,17,18
|
|
SCOREINIT:1390
|
|
SCOREDIFF:958
|
|
|
|
|
|
#START
|
|
|
|
|
|
#BARLINEOFF
|
|
#SCROLL 0.8
|
|
,
|
|
#BARLINEON
|
|
3,
|
|
,
|
|
,
|
|
,
|
|
1,
|
|
,
|
|
1,
|
|
,
|
|
11,
|
|
,
|
|
11,
|
|
05,
|
|
000000000000000008000000000000000000500000000000,
|
|
000000000000000008000000000000000000000000000000,
|
|
7,
|
|
08,
|
|
|
|
#GOGOSTART
|
|
30001001,
|
|
,
|
|
10001001,
|
|
,
|
|
30001001,
|
|
,
|
|
10001001,
|
|
04,
|
|
|
|
#GOGOEND
|
|
1,
|
|
,
|
|
1,
|
|
,
|
|
10001001,
|
|
,
|
|
10001001,
|
|
,
|
|
10000001,
|
|
,
|
|
10000001,
|
|
05,
|
|
000000000000000008000000000000000000500000000000,
|
|
000000000000000008000000000000000000000000000000,
|
|
7,
|
|
08,
|
|
1001,
|
|
01,
|
|
1001,
|
|
01,
|
|
1001,
|
|
01,
|
|
5,
|
|
000000000000000008000000000000000000000000000000,
|
|
|
|
#GOGOSTART
|
|
30001001,
|
|
,
|
|
10001001,
|
|
0002,
|
|
0202,
|
|
0205,
|
|
,
|
|
000008000000000000000000000000000000000000000000,
|
|
10001001,
|
|
,
|
|
10001001,
|
|
0002,
|
|
0202,
|
|
0205,
|
|
,
|
|
000008000000000000000000000000000000000000000000,
|
|
|
|
#GOGOEND
|
|
1,
|
|
1,
|
|
11,
|
|
24,
|
|
|
|
#GOGOSTART
|
|
9,
|
|
,
|
|
,
|
|
08,
|
|
9,
|
|
,
|
|
,
|
|
08,
|
|
|
|
#GOGOEND
|
|
30001001,
|
|
04,
|
|
|
|
|
|
#END
|
|
|