Files
ESE/01 Pop/Himawari/Himawari.tja
T
2023-06-15 19:15:39 -05:00

252 lines
8.8 KiB
Plaintext

//TJADB Project
TITLE:Himawari
TITLEJA:ひまわり
SUBTITLE:--Yusuke (Shuchishin)/Yusuke Kamiji Himawari Monogatari
BPM:92
WAVE:Himawari.ogg
OFFSET:-4.102
DEMOSTART:86.922
COURSE:Oni
LEVEL:5
SCOREINIT:790
SCOREDIFF:210
#START
000000000000000000000000000000000000000000000000,
000000000000000000000000000000000000000000000000,
000000000000000000000000000000000000000000000000,
200000000000000000000000000000000000200000200000,
200000000000000000000000000000000000000000200000,
200000000000000000000000000000200000200000000000,
100000200020100000200020100000100000200000000000,
#GOGOSTART
100000100010200010000010100000100000200000100000,
100000100010200010000010100000100010200000100000,
100000100010200000100000100000100010200000100000,
100000200000200000100010100000100000200000100010,
100000100010200010000010100000100000200000100000,
100000100010200010000010100000100010200000100000,
100000100010200000100000100000100010200000100000,
300000200000300000200000300000200000300000000000,
300000000000000000000000000000000000000000000000,
#GOGOEND
100000000000200000000010100000100010200000100000,
100000000000200000000010100000100010200000100010,
100000000000200000000010100000100010200000100000,
100010200000100010200000100000100010200000000000,
100000000000200000000010100000100010200000100000,
100000000000200000000010100000100010200000100010,
100000000000200000000010100000100010200000100000,
100010200000100010200000100000100010200000000000,
100000000000200000000010100000100000200000100000,
100000100000200000100020100000100010200000000000,
100000000000200000000010100000100000200000100000,
100000100000200000100010100000200000100000000000,
100010200020100020000000100000100010200000100000,
100010200020100020000000100000100010200000100000,
100000100010200000100000100000100010200000100000,
100000200000200000100000000000000000000000000000,
#GOGOSTART
100000100010200010000010100000100000200000100000,
100000100010200010000010100000100010200000100000,
100000100010200000100000100000100010200000100000,
100000200000200000100010100000100000200000100010,
100000100010200010000010100000100000200000100000,
100000100010200010000010100000100010200000100000,
100000100010200000100000100000100010200000100000,
300000200000300000200000300000200000300000000000,
300000000000000000000000000000000000000000000000,
#GOGOEND
#END
COURSE:Hard
LEVEL:5
SCOREINIT:920
SCOREDIFF:270
#START
000000000000000000000000000000000000000000000000,
000000000000000000000000000000000000000000000000,
000000000000000000000000000000000000000000000000,
200000000000000000000000000000000000200000200000,
200000000000000000000000000000000000000000200000,
200000000000000000000000000000200000200000000000,
100000100010100000100010100000000000000000000000,
#GOGOSTART
100000100010100000000000100000100000200000000000,
100000100010100000000000100000100000200000000000,
100000100010200000100000100000100010200000100000,
100000200000200000100000000000000000000000000000,
100000100010100000000000100000100000200000000000,
100000100010100000000000100000100000200000000000,
100000100010200000100000100000100010200000100000,
300000000000400000000000300000000000400000000000,
300000000000000000000000000000000000000000000000,
#GOGOEND
100000000000200000000010100000100000200000000000,
100000000000200000000010100000100000200000000000,
100000000000200000000010100000100000200000100000,
100000100000200000100000100000000000000000000000,
100000000000200000000010100000100000200000000000,
100000000000200000000010100000100000200000000000,
100000000000200000000010100000100000200000100000,
100000100000200000100000100000000000000000000000,
100000000000200000100000100000100000200000000000,
100000000000200000100000000000100000200000000000,
100000000000200000100000100000100000200000000000,
100000000000000000000000100000000000100000000000,
100000100000200000000000100000100000200000100000,
100000100000200000000000100000100000200000000000,
100000200000000000200000100000200000000000200000,
100000200000100000200000000000000000000000000000,
#GOGOSTART
100000100010100000000000100000100000200000000000,
100000100010100000000000100000100000200000000000,
100000100010200000100000100000100010200000100000,
100000200000200000100000000000000000000000000000,
100000100010100000000000100000100000200000000000,
100000100010100000000000100000100000200000000000,
100000100010200000100000100000100010200000100000,
300000000000400000000000300000000000400000000000,
300000000000000000000000000000000000000000000000,
#GOGOEND
#END
COURSE:Normal
LEVEL:4
BALLOON:6
SCOREINIT:1130
SCOREDIFF:390
#START
000000000000000000000000000000000000000000000000,
000000000000000000000000000000000000000000000000,
000000000000000000000000000000000000000000000000,
200000000000000000000000000000000000200000000000,
200000000000000000000000000000000000000000000000,
200000000000000000000000200000000000200000000000,
700000000000000000000000000000800000000000000000,
#GOGOSTART
100000000000100000100000100000000000200000000000,
100000000000100000100000100000000000000000000000,
100000000000200000000000100000000000200000000000,
100000000000100000000000100000000000000000000000,
100000000000100000100000100000000000200000000000,
100000000000100000100000100000000000000000000000,
100000000000200000000000100000000000200000000000,
300000000000300000000000300000000000300000000000,
300000000000000000000000000000000000000000000000,
#GOGOEND
100000000000200000000000100000000000200000000000,
100000000000200000000000100000100000100000000000,
100000000000200000000000100000000000200000000000,
100000000000000000000000000000000000000000000000,
100000000000200000000000100000000000200000000000,
100000000000200000000000100000100000100000000000,
100000000000200000000000100000000000200000000000,
100000000000000000000000000000000000000000000000,
100000000000200000000000000000000000200000000000,
100000000000200000000000100000100000200000000000,
100000000000200000000000000000000000200000000000,
100000000000200000000000000000000000000000000000,
100000000000100000100000100000000000200000000000,
200000000000200000200000200000000000000000000000,
300000000000000000000000300000000000000000000000,
30330000,
#GOGOSTART
100000000000100000100000100000000000200000000000,
100000000000100000100000100000000000200000000000,
100000000000200000000000100000000000200000000000,
100000000000100000000000100000000000000000000000,
100000000000100000100000100000000000200000000000,
100000000000100000100000100000000000000000000000,
100000000000200000000000100000000000200000000000,
300000000000300000000000300000000000300000000000,
600000000000000000800000000000000000000000000000,
#END
COURSE:Easy
LEVEL:3
BALLOON:6
SCOREINIT:1050
SCOREDIFF:480
#START
000000000000000000000000000000000000000000000000,
000000000000000000000000000000000000000000000000,
000000000000000000000000000000000000000000000000,
200000000000000000000000000000000000000000000000,
200000000000000000000000000000000000000000000000,
200000000000000000000000200000000000000000000000,
700000000000000000000000800000000000000000000000,
#GOGOSTART
100000000000100000000000100000000000000000000000,
100000000000100000000000100000000000000000000000,
100000000000000000000000200000000000000000000000,
100000000000100000000000100000000000000000000000,
100000000000100000000000100000000000000000000000,
100000000000100000000000100000000000000000000000,
100000000000000000000000200000000000000000000000,
300000000000000000000000300000000000000000000000,
300000000000000000000000000000000000000000000000,
#GOGOEND
100000000000000000000000200000000000000000000000,
100000000000000000000000200000000000000000000000,
100000000000200000000000100000000000200000000000,
100000000000000000000000000000000000000000000000,
100000000000000000000000200000000000000000000000,
100000000000000000000000200000000000000000000000,
100000000000200000000000100000000000200000000000,
100000000000000000000000000000000000000000000000,
100000000000200000000000000000000000200000000000,
100000000000200000000000000000000000000000000000,
100000000000200000000000000000000000200000000000,
100000000000200000000000000000000000000000000000,
200000000000200000000000200000000000000000000000,
100000000000100000000000100000000000000000000000,
300000000000000000000000300000000000000000000000,
300000000000000000000000000000000000000000000000,
#GOGOSTART
100000000000100000000000100000000000000000000000,
100000000000100000000000100000000000000000000000,
100000000000000000000000200000000000000000000000,
100000000000100000000000100000000000000000000000,
100000000000100000000000100000000000000000000000,
100000000000100000000000100000000000000000000000,
100000000000000000000000200000000000000000000000,
300000000000300000000000300000000000300000000000,
600000000000800000000000000000000000000000000000,
#GOGOEND
#END