Files
ESE/01 Pop/I SHOULD BE SO LUCKY/I SHOULD BE SO LUCKY.tja
T
2023-06-15 19:15:39 -05:00

253 lines
7.5 KiB
Plaintext

//TJADB Project
TITLE:I SHOULD BE SO LUCKY
TITLEJA:I SHOULD BE SO LUCKY
SUBTITLE:--mihimaru GT/Aberenbo Mama
BPM:118
WAVE:I SHOULD BE SO LUCKY.ogg
OFFSET:-2.263
DEMOSTART:68.110
COURSE:Oni
LEVEL:6
BALLOON:9
SCOREINIT:980
SCOREDIFF:250
#START
10201121,
00210120,
10201121,
00210120,
12121121,
00210120,
12121120,
70000840,
1020100012021020,
1020100012012010,
1020100012021020,
1020101012012010,
1020100012021020,
1021000010120010,
1020101012012010,
1021201212021000,
1010102010201011,
1010102010201011,
1010102010201022,
1010102011201000,
2002200010112100,
2002200010121100,
2002200010112100,
1001100011201000,
3400,
3404,
3404,
3340,
1000100110102000,
1000100110102010,
1000100110102000,
1000100110101030,
#MEASURE 2/4
4002,
#GOGOSTART
#MEASURE 4/4
1020101120100010,
2011201120100020,
1020101120100010,
2000202212102020,
1020101120100010,
2011201120100020,
2010201120221020,
2000202212102000,
#GOGOEND
3,
#END
COURSE:Hard
LEVEL:6
SCOREINIT:1020
SCOREDIFF:260
#START
100000000000200000000000100000100000200000100000,
000000000000200000000000000000100000200000000000,
100000000000200000000000100000100000200000100000,
000000000000200000000000000000100000200000000000,
100000200000100000200000100000100000200000100000,
000000000000200000000000000000100000200000000000,
100000200000100000200000100000100000200000000000,
100000000000100000000000000000100000200000000000,
100000000200200000000000100000100000100000000000,
100000000200200000000000100000100000200000000000,
100000000200200000000000100000100000100000000000,
100000200000100000200000100100000100100000000000,
100000000200200000000000100000100000100000000000,
100000000200200000000000100000100000200000000000,
100000000200200000000000100000100000100000000000,
100000200000100000200000100100000100100000000000,
100000100000100000200000100000100000100000000000,
100000100000100000200000100000100000100000000000,
100000100000100000200000100000200000100000000000,
100000100000100000200000100000200000100000000000,
200000000200200000000000100000100000200000000000,
200000000200200000000000100000100000100000000000,
200000000200200000000000100000100000200000000000,
100000000100100000000000100000200000100000000000,
300000000000400000000000000000000000000000000000,
300000000000400000000000000000000000400000000000,
300000000000400000000000000000000000400000000000,
300000000000300000000000400000000000000000000000,
100000000000100000000000100000100000200000000000,
100000000000100000000000200000100000200000000000,
100000000000100000000000200000000000100000200000,
000000200000100000000000500000000000000000000800,
#MEASURE 2/4
000000000000000000000000,
#MEASURE 4/4
#GOGOSTART
100000200000100000200000100000100100100000100000,
200000100000200000100000200000100100100000000000,
100000200000100000200000100000100100100000100000,
200000000000200000000000200000000000000000000000,
100000200000100000200000100000100100100000100000,
200000100000200000100000200000100100100000000000,
100000200000200000100000200000200200200000100000,
200000000000200000100100100000100000200000000000,
#GOGOEND
300000000000000000000000000000000000000000000000,
#END
COURSE:Normal
LEVEL:4
BALLOON:10
SCOREINIT:1470
SCOREDIFF:530
#START
100000000000000000000000000000000000000000000000,
100000000000200000000000000000000000000000000000,
100000000000000000000000000000000000000000000000,
100000000000200000000000000000000000000000000000,
100000000000100000000000100000000000000000000000,
100000000000200000000000000000000000000000000000,
100000000000100000000000100000100000000000000000,
500000000000000000000000800000000000000000000000,
100000000000000000000000100000000000100000000000,
100000000000000000000000100000000000100000000000,
100000000000000000000000100000000000100000000000,
200000000000200000000000200000000000000000000000,
100000000000000000000000100000000000200000000000,
100000000000000000000000100000000000100000000000,
100000000000000000000000100000000000200000000000,
300000000000300000000000400000000000000000000000,
100000000000100000000000100000100000100000000000,
100000000000000000000000100000100000100000000000,
100000000000100000000000100000100000100000000000,
100000000000000000000000200000200000200000000000,
200000000000000000000000100000000000000000000000,
200000000000000000000000100000000000000000000000,
200000000000200000000000100000000000000000000000,
100000000000100000000000100000100000100000000000,
300000000000000000000000000000000000000000000000,
400000000000000000000000000000000000000000000000,
300000000000000000000000000000000000000000000000,
400000000000000000000000000000000000000000000000,
100000000000100000000000100000000000200000000000,
100000000000100000000000100000000000200000000000,
100000000000100000000000100000000000000000000000,
500000000000000000000000000000000000000000800000,
#MEASURE 2/4
000000000000000000000000,
#MEASURE 4/4
#GOGOSTART
100000000000100000100000100000000000100000000000,
100000000000100000000000100000000000000000000000,
100000000000100000100000100000000000100000000000,
100000000000000000000000000000000000000000000000,
100000000000100000100000100000000000100000000000,
200000000000200000000000200000000000000000000000,
100000000000100000100000100000000000100000000000,
900000000000000000000000000000000000000000000008,
#GOGOEND
#END
COURSE:Easy
LEVEL:4
BALLOON:6
SCOREINIT:1100
SCOREDIFF:430
#START
100000000000000000000000000000000000000000000000,
100000000000200000000000000000000000000000000000,
100000000000000000000000000000000000000000000000,
100000000000200000000000000000000000000000000000,
100000000000100000000000100000000000000000000000,
100000000000200000000000000000000000000000000000,
100000000000100000000000100000000000000000000000,
500000000000000000000000800000000000000000000000,
100000000000000000000000100000000000100000000000,
100000000000000000000000100000000000100000000000,
100000000000000000000000100000000000100000000000,
200000000000200000000000200000000000000000000000,
100000000000000000000000100000000000100000000000,
100000000000000000000000100000000000100000000000,
100000000000000000000000100000000000100000000000,
200000000000200000000000200000000000000000000000,
100000000000100000000000100000000000000000000000,
100000000000100000000000100000000000000000000000,
100000000000100000000000100000000000000000000000,
100000000000100000000000200000000000000000000000,
200000000000000000000000100000000000000000000000,
200000000000000000000000100000000000000000000000,
200000000000200000000000100000000000000000000000,
100000000000100000000000100000000000000000000000,
300000000000000000000000000000000000000000000000,
400000000000000000000000000000000000000000000000,
300000000000000000000000000000000000000000000000,
400000000000000000000000000000000000000000000000,
100000000000100000000000100000000000000000000000,
100000000000100000000000100000000000000000000000,
100000000000100000000000100000000000000000000000,
500000000000000000000000000000000000000000800000,
#MEASURE 2/4
000000000000000000000000,
#MEASURE 4/4
#GOGOSTART
100000000000100000100000100000000000000000000000,
100000000000100000000000100000000000000000000000,
100000000000100000100000100000000000000000000000,
200000000000200000000000200000000000000000000000,
100000000000100000100000100000000000000000000000,
100000000000100000000000100000000000000000000000,
100000000000100000100000100000000000100000000000,
900000000000000000000000000000000000000000000008,
#GOGOEND
#END