459 lines
5.7 KiB
Plaintext
459 lines
5.7 KiB
Plaintext
//TJADB Project
|
|
TITLE:Katte Rock
|
|
TITLEJA:買ってロック
|
|
SUBTITLE:--Ikuzo Yoshi/Gurt!
|
|
SUBTITLEJA:「グルト!」CMソング
|
|
BPM:184
|
|
WAVE:Katte Rock.ogg
|
|
OFFSET:-1.738
|
|
DEMOSTART:6.955
|
|
|
|
COURSE:Oni
|
|
LEVEL:7
|
|
SCOREINIT:430
|
|
SCOREDIFF:120
|
|
|
|
|
|
#START
|
|
|
|
|
|
3,
|
|
3,
|
|
33,
|
|
3000300030111010,//4
|
|
|
|
#GOGOSTART
|
|
1010202011102020,
|
|
1110201110102000,
|
|
1010202011102020,
|
|
1011101020000000,
|
|
30304403,
|
|
03044040,
|
|
30304403,
|
|
02222222,//12
|
|
|
|
#GOGOEND
|
|
10201120,
|
|
10211201,
|
|
01211022,
|
|
300000300000000000600000000000000008000000000000,
|
|
10210210,
|
|
2010002011101000,
|
|
10210210,
|
|
2010002011102000,
|
|
11211211,
|
|
21121105,
|
|
000000000000000000000000000000000008000000000000,
|
|
0020202020222020,//24
|
|
|
|
#GOGOSTART
|
|
1010202011102020,
|
|
1110201110102000,
|
|
1010202011102020,
|
|
1011101020000000,
|
|
30304403,
|
|
03044040,
|
|
30304403,
|
|
02222222,//32
|
|
|
|
#GOGOEND
|
|
10201121,
|
|
11011201,
|
|
01211022,
|
|
300000300000000000600000000000000008000000000000,
|
|
11211211,
|
|
2010102011102000,
|
|
11211211,
|
|
2010102011102000,
|
|
1110201110201110,
|
|
2011102010100050,
|
|
000000000000000000000000000000000008000000000000,
|
|
0020202020222020,
|
|
1010202011102010,
|
|
1011101020102011,
|
|
1011102000201011,
|
|
1020002010111020,
|
|
1000102000111020,
|
|
0020002220002000,
|
|
1000100010111010,
|
|
0020202020222020,//52
|
|
|
|
#GOGOSTART
|
|
1110202011102020,
|
|
1110201110102000,
|
|
1110202011102020,
|
|
1011101020000000,
|
|
30304403,
|
|
03044040,
|
|
30304403,
|
|
02222222,//60
|
|
|
|
#GOGOEND
|
|
11122221,
|
|
11122201,
|
|
01211121,
|
|
300000300000000000600000000000000008000000000000,
|
|
1110201110201110,
|
|
2011102011102010,
|
|
1110201110201110,
|
|
2011102011102010,
|
|
1120201120201120,
|
|
2011202010100050,
|
|
000000000000000000000000000000000008000000000000,
|
|
0020202020222020,
|
|
1010202011102011,
|
|
1011201020102011,
|
|
1011102000201011,
|
|
1020002010112020,
|
|
1000102000111020,
|
|
0020002220002000,
|
|
1000100010111010,
|
|
0020202020222020,
|
|
0011202000112020,
|
|
0011202011102020,
|
|
1011201020102011,
|
|
1011203000000000,
|
|
|
|
|
|
#END
|
|
|
|
|
|
COURSE:Hard
|
|
LEVEL:5
|
|
BALLOON:15
|
|
SCOREINIT:530
|
|
SCOREDIFF:158
|
|
|
|
|
|
#START
|
|
|
|
|
|
3,
|
|
3,
|
|
33,
|
|
30303330,//4
|
|
|
|
#GOGOSTART
|
|
10111110,
|
|
11211020,
|
|
10111110,
|
|
11112000,
|
|
30303303,
|
|
03033030,
|
|
30303303,
|
|
,//12
|
|
|
|
#GOGOEND
|
|
10201110,
|
|
10201100,
|
|
10201110,
|
|
300000300000000000600000000008000000000000000000,
|
|
10110110,
|
|
11013030,
|
|
10110110,
|
|
11014040,
|
|
10110110,
|
|
11011105,
|
|
000000000000000000000000000000000008000000000000,
|
|
,//24
|
|
|
|
#GOGOSTART
|
|
10111110,
|
|
11211020,
|
|
10111110,
|
|
11112000,
|
|
40404404,
|
|
04044040,
|
|
40404404,
|
|
,//32
|
|
|
|
#GOGOEND
|
|
10201120,
|
|
10201100,
|
|
10201120,
|
|
300000300000000000600000000000000008000000000000,
|
|
10110110,
|
|
11013030,
|
|
10110110,
|
|
11014040,
|
|
10110110,
|
|
11111105,
|
|
000000000000000000000000000000000008000000000000,
|
|
,
|
|
10221120,
|
|
11211020,
|
|
10210110,
|
|
21011110,
|
|
10210111,
|
|
01011010,
|
|
10101101,
|
|
,//52
|
|
|
|
#GOGOSTART
|
|
10221120,
|
|
11211020,
|
|
10221120,
|
|
11112000,
|
|
40404404,
|
|
04044040,
|
|
40404404,
|
|
,//60
|
|
|
|
#GOGOEND
|
|
10201120,
|
|
10102200,
|
|
10201120,
|
|
300000300000000000600000000000000008000000000000,
|
|
10210210,
|
|
21023040,
|
|
10210210,
|
|
21024040,
|
|
10210210,
|
|
21021105,
|
|
000000000000000000000000000008000000000000000000,
|
|
,
|
|
10221120,
|
|
11211020,
|
|
10120110,
|
|
12011110,
|
|
10120111,
|
|
01011010,
|
|
10101101,
|
|
02222222,
|
|
02220222,
|
|
02222020,
|
|
11221120,
|
|
12270000,
|
|
,
|
|
00080000,
|
|
|
|
|
|
#END
|
|
|
|
|
|
COURSE:Normal
|
|
LEVEL:3
|
|
BALLOON:12
|
|
SCOREINIT:920
|
|
SCOREDIFF:315
|
|
|
|
|
|
#START
|
|
|
|
|
|
3,
|
|
3,
|
|
33,
|
|
1111,//4
|
|
|
|
#GOGOSTART
|
|
11,
|
|
1112,
|
|
11,
|
|
1120,
|
|
6,
|
|
000000000000000000000000000000000008000000000000,
|
|
600000000000000000000000000000000000000008000000,
|
|
,//12
|
|
|
|
#GOGOEND
|
|
1210,
|
|
1210,
|
|
1212,
|
|
600000000000000000000000000008000000000000000000,
|
|
10010010,
|
|
01003000,
|
|
10010010,
|
|
01004000,
|
|
10010010,
|
|
01001005,
|
|
000000000000000000000000000000000008000000000000,
|
|
,//24
|
|
|
|
#GOGOSTART
|
|
11,
|
|
1112,
|
|
11,
|
|
1120,
|
|
6,
|
|
000000000000000000000000000000000008000000000000,
|
|
600000000000000000000000000000000000000008000000,
|
|
,//32
|
|
|
|
#GOGOEND
|
|
1210,
|
|
1210,
|
|
1212,
|
|
600000000000000000000000000008000000000000000000,
|
|
10010010,
|
|
01003000,
|
|
10010010,
|
|
01004000,
|
|
10010010,
|
|
01001005,
|
|
000000000000000000000000000000000008000000000000,
|
|
,
|
|
11,
|
|
1110,
|
|
12,
|
|
1120,
|
|
11,
|
|
1110,
|
|
1125,
|
|
000000000000000000000000000008000000000000000000,//52
|
|
|
|
#GOGOSTART
|
|
11,
|
|
1112,
|
|
11,
|
|
1120,
|
|
6,
|
|
000000000000000000000000000000000008000000000000,
|
|
600000000000000000000000000000000000000008000000,
|
|
,//60
|
|
|
|
#GOGOEND
|
|
1212,
|
|
1110,
|
|
1212,
|
|
600000000000000000000000000008000000000000000000,
|
|
10010010,
|
|
01003000,
|
|
10010010,
|
|
01004000,
|
|
10010010,
|
|
01001005,
|
|
000000000000000000000000000008000000000000000000,
|
|
,
|
|
11,
|
|
1120,
|
|
11,
|
|
1120,
|
|
1110,
|
|
1120,
|
|
1110,
|
|
2,
|
|
11,
|
|
11,
|
|
1111,
|
|
10170000,
|
|
,
|
|
00080000,
|
|
|
|
|
|
#END
|
|
|
|
|
|
COURSE:Easy
|
|
LEVEL:3
|
|
BALLOON:11
|
|
SCOREINIT:1090
|
|
SCOREDIFF:270
|
|
|
|
|
|
#START
|
|
|
|
|
|
3,
|
|
3,
|
|
33,
|
|
500000000000000000000000000008000000000000000000,//4
|
|
|
|
#GOGOSTART
|
|
11,
|
|
1110,
|
|
11,
|
|
1110,
|
|
6,
|
|
000000000000000000000000000000000008000000000000,
|
|
600000000000000000000000000000000000000008000000,
|
|
,//12
|
|
|
|
#GOGOEND
|
|
11,
|
|
1,
|
|
11,
|
|
600000000000000000000000000008000000000000000000,
|
|
11,
|
|
1,
|
|
11,
|
|
2,
|
|
11,
|
|
20002005,
|
|
000000000000000000000000000000000008000000000000,
|
|
,//24
|
|
|
|
#GOGOSTART
|
|
11,
|
|
1110,
|
|
11,
|
|
1110,
|
|
6,
|
|
000000000000000000000000000000000008000000000000,
|
|
600000000000000000000000000000000000000008000000,
|
|
,//32
|
|
|
|
#GOGOEND
|
|
11,
|
|
1,
|
|
11,
|
|
600000000000000000000000000008000000000000000000,
|
|
11,
|
|
1,
|
|
11,
|
|
2,
|
|
11,
|
|
20002005,
|
|
000000000000000000000000000000000008000000000000,
|
|
,
|
|
11,
|
|
1,
|
|
12,
|
|
1,
|
|
11,
|
|
1110,
|
|
1015,
|
|
000000000000000000000000000008000000000000000000,//52
|
|
|
|
#GOGOSTART
|
|
11,
|
|
1110,
|
|
11,
|
|
1110,
|
|
6,
|
|
000000000000000000000000000000000008000000000000,
|
|
600000000000000000000000000000000000000008000000,
|
|
,//60
|
|
|
|
#GOGOEND
|
|
11,
|
|
2,
|
|
11,
|
|
600000000000000000000000000008000000000000000000,
|
|
12,
|
|
1,
|
|
12,
|
|
1,
|
|
12,
|
|
10002005,
|
|
000000000000000000000000000008000000000000000000,
|
|
,
|
|
11,
|
|
1,
|
|
11,
|
|
1,
|
|
12,
|
|
12,
|
|
1110,
|
|
1,
|
|
12,
|
|
12,
|
|
1110,
|
|
10070000,
|
|
,
|
|
00080000,
|
|
|
|
|
|
#END
|
|
|