388 lines
15 KiB
Plaintext
388 lines
15 KiB
Plaintext
//TJADB Project
|
|
TITLE:Kimagure Romantic
|
|
TITLEJA:気まぐれロマンティック
|
|
SUBTITLE:--Ikimono-gakari/Celebrity and Poor Tarou
|
|
BPM:170
|
|
WAVE:Kimagure Romantic.ogg
|
|
OFFSET:-2.035
|
|
DEMOSTART:84.271
|
|
|
|
COURSE:Oni
|
|
LEVEL:6
|
|
BALLOON:16
|
|
SCOREINIT:730
|
|
SCOREDIFF:200
|
|
|
|
|
|
#START
|
|
|
|
|
|
,
|
|
,
|
|
,
|
|
,
|
|
,
|
|
,
|
|
7,
|
|
8,
|
|
#MEASURE 3/4
|
|
#BPMCHANGE 167
|
|
,
|
|
#MEASURE 4/4
|
|
#BPMCHANGE 170
|
|
100000200000200000100000000000100100200000200000,
|
|
100000200000200000100000000000100000200000100000,
|
|
000000100000200000100000000000100100200000200000,
|
|
100000200000200000100000200000100100200000000000,
|
|
100000200000200000100000000000100100200000200000,
|
|
100000200000200000100000000000100000200000000000,
|
|
100000200000100000200000100000100100200000200000,
|
|
100000000000200000100000000000100100200000200000,
|
|
100000000000200000200000000000100000100000000000,
|
|
100000000000200000000000000000200000200000000000,
|
|
100000000000200000000000000000200000200000000000,
|
|
100000000000200000000000000000200000200000000000,
|
|
100000000000200000100000000000000000000000000000,
|
|
100000000000200000000000000000200000200000000000,
|
|
100000000000200000000000000000200000200000000000,
|
|
100000000000200000000000000000200000200000000000,
|
|
100000000000200000100000000000100100100000200000,
|
|
100000000000200000100000000000100000200000100000,
|
|
000000100000200000100100100000200000200000000000,
|
|
100000000000200000100000000000100000200000100000,
|
|
000000100000200000100100100000100000200000000000,
|
|
100000000000200000100000000000100000200000000000,
|
|
100000000000000000000000000000000000000000000000,
|
|
100000000000200000100000000000100000200000200000,
|
|
100000000000200000000000000000100100100000200000,
|
|
100000000000200000100000000000200000200000000000,
|
|
100000000000200000100000000000200200200000200000,
|
|
100000000000200000100000000000200000200000000000,
|
|
100000000000200000100000000000000000000000000000,
|
|
100000000000200000100000000000200000200000000000,
|
|
100000000000200000100000000000200200200000200000,
|
|
100000000000200000000000000000200000200000000000,
|
|
100000000000200000100000000000100100100000200000,
|
|
100000000000200000100000000000100000200000100000,
|
|
000000100000200000100100100000200000200000000000,
|
|
100000000000200000100000000000100000200000100000,
|
|
000000100000200000100100100000100000200000000000,
|
|
100000000000200000100000000000100000200000000000,
|
|
100000000000000000000000000000000000000000000000,
|
|
100000000000200000100000000000100000200000200000,
|
|
100000000000000000000000100100100100100000000000,
|
|
100000000000200000100100100000000000200000100000,
|
|
100000000000200000100100100000000000200000100000,
|
|
100000000000200000100100100000000000200000100000,
|
|
100000100000200000100000000000100100200000200000,
|
|
100000000000200000100100100000000000200000100000,
|
|
100000000000200000100100100000000000200000100000,
|
|
100000200000100000000000100000200000100000000000,
|
|
100000200000100000200000100000200000100100200000,
|
|
500000000000000000000008000000000000000000000000,
|
|
|
|
#GOGOSTART
|
|
100000200000100100100000100000200000100100100000,
|
|
100000200000100100100000200000200000000000200000,
|
|
100000200000100100100000100000200000100100100000,
|
|
100000200000100000000000100100100000200000000000,
|
|
100000200000100100100000100000200000100100100000,
|
|
200000100000200000000000200000100000200000000000,
|
|
200000100100100000000000200000100100100000000000,
|
|
300000000000000000000000300000000000300000000000,
|
|
100000200000100100200000100000200000100100200000,
|
|
100000200000100100100000200000200000000000200000,
|
|
100000200000100100200000100000200000100100200000,
|
|
100000200000100000000000100100100000200000000000,
|
|
100000200000100100200000100000200000100100200000,
|
|
200000000000300000000000300000000000300000000000,
|
|
300000000000000000000000600000000000000000000000,
|
|
000008000000000000000000000000000000000000000000,
|
|
|
|
#GOGOEND
|
|
|
|
|
|
#END
|
|
|
|
|
|
COURSE:Hard
|
|
LEVEL:3
|
|
BALLOON:16,12
|
|
SCOREINIT:690
|
|
SCOREDIFF:170
|
|
|
|
|
|
#START
|
|
|
|
|
|
000000000000000000000000000000000000000000000000,
|
|
000000000000000000000000000000000000000000000000,
|
|
000000000000000000000000000000000000000000000000,
|
|
000000000000000000000000000000000000000000000000,
|
|
000000000000000000000000000000000000000000000000,
|
|
000000000000000000000000000000000000000000000000,
|
|
700000000000000000000000000000000000000000000800,
|
|
000000000000000000000000000000000000000000000000,
|
|
000000000000000000000000000000000000000000000000,
|
|
100000100000200000200000000000100000200000000000,
|
|
100000100000200000200000000000100000200000000000,
|
|
100000000000200000100000000000100000200000000000,
|
|
100000000000200000000000100000000000000000000000,
|
|
100000100000200000200000000000100000200000000000,
|
|
100000100000200000200000000000100000200000000000,
|
|
100000000000200000000000100000100000200000000000,
|
|
100000000000200000100000000000100000200000000000,
|
|
700000000000000000000000000000000000000800000000,
|
|
100000000000200000000000000000200000200000000000,
|
|
100000000000200000000000000000200000200000000000,
|
|
100000000000200000000000000000200000200000000000,
|
|
100000000000200000100000000000000000000000000000,
|
|
100000000000200000000000000000200000200000000000,
|
|
100000000000200000000000000000200000200000000000,
|
|
100000000000200000000000000000200000200000000000,
|
|
100000000000200000100000000000000000000000000000,
|
|
100000000000200000000000000000100000200000100000,
|
|
000000100000200000100000000000100000200000000000,
|
|
100000000000200000000000000000100000200000100000,
|
|
000000100000200000100000000000100000200000000000,
|
|
100000000000200000000000000000000000200000000000,
|
|
200000000000000000000000000000000000000000000000,
|
|
100000000000200000000000000000100000200000000000,
|
|
100000100000000000000000000000000000000000000000,
|
|
100000000000200000100000000000100000200000000000,
|
|
100000000000200000100000000000100000200000000000,
|
|
100000000000200000100000000000100000200000000000,
|
|
100000000000200000200000000000000000000000000000,
|
|
100000000000200000100000000000100000200000000000,
|
|
100000000000200000100000000000100000200000000000,
|
|
100000000000200000100000000000100000200000000000,
|
|
100000000000200000200000000000000000000000000000,
|
|
100000000000200000100000000000100000200000100000,
|
|
000000100000200000000000100000100000200000000000,
|
|
100000000000200000100000000000100000200000100000,
|
|
000000100000200000000000100000100000200000000000,
|
|
100000000000200000100000000000000000200000000000,
|
|
200000000000000000000000000000000000000000000000,
|
|
100000000000200000100000000000100000200000000000,
|
|
100000000000000000000000000000000000000000000000,
|
|
100000000000000000100100100000000000000000100000,
|
|
100000000000100000100000100000000000100000100000,
|
|
100000000000200000000000100000000000200000000000,
|
|
100000000000200000100000000000100000200000000000,
|
|
100000000000000000100100100000000000000000100000,
|
|
100000000000100000100000100000000000100000000000,
|
|
100000200000100000000000100000200000100000000000,
|
|
500000000000000000000000000800000000000000000000,
|
|
300000000000000000000000000000000000000000000000,
|
|
#GOGOSTART
|
|
100000200000100000000000100000200000100000200000,
|
|
000000200000000000200000200000200000000000000000,
|
|
100000200000100000000000100000200000100000100000,
|
|
000000200000100000200000200000200000000000000000,
|
|
100000200000100000000000100000200000100000000000,
|
|
100000200000100000000000100000200000100000000000,
|
|
300000000000000000000000300000000000000000000000,
|
|
300000000000000000000000000000000000000000000000,
|
|
100000200000100000000000100000200000100000200000,
|
|
000000200000000000200000200000200000000000000000,
|
|
100000200000100000000000100000200000100000100000,
|
|
000000200000100000200000000000000000000000100000,
|
|
100000000000100000100000000000100000000000100000,
|
|
000000000000300000000000300000000000300000000000,
|
|
300000000000000000000000600000000000000000000000,
|
|
000000000000000800000000000000000000000000000000,
|
|
#GOGOEND
|
|
|
|
|
|
#END
|
|
|
|
|
|
COURSE:Normal
|
|
LEVEL:4
|
|
BALLOON:8,14
|
|
SCOREINIT:970
|
|
SCOREDIFF:340
|
|
|
|
|
|
#START
|
|
|
|
|
|
000000000000000000000000000000000000000000000000,
|
|
000000000000000000000000000000000000000000000000,
|
|
000000000000000000000000000000000000000000000000,
|
|
000000000000000000000000000000000000000000000000,
|
|
000000000000000000000000000000000000000000000000,
|
|
000000000000000000000000000000000000000000000000,
|
|
700000000000000000000000000000000000000000000000,
|
|
800000000000000000000000000000000000000000000000,
|
|
000000000000000000000000000000000000000000000000,
|
|
100000000000200000000000100000000000200000000000,
|
|
100000000000100000100000000000000000000000000000,
|
|
100000000000200000000000100000000000200000000000,
|
|
100000000000100000000000200000000000000000000000,
|
|
100000000000200000000000100000000000200000000000,
|
|
100000000000100000100000000000000000000000000000,
|
|
100000000000200000000000100000000000200000000000,
|
|
700000000000000000000000000000000000000000000000,
|
|
000000000000000000800000000000000000000000000000,
|
|
100000000000200000200000000000000000000000000000,
|
|
100000000000200000000000100000000000200000000000,
|
|
100000000000000000000000000000000000000000000000,
|
|
000000000000000000000000000000000000000000000000,
|
|
100000000000200000200000000000000000000000000000,
|
|
100000000000200000000000100000000000200000000000,
|
|
100000000000000000000000000000000000000000000000,
|
|
000000000000000000000000000000000000000000000000,
|
|
100000000000200000000000000000000000200000000000,
|
|
100000000000200000000000000000000000000000000000,
|
|
100000000000200000000000000000000000200000000000,
|
|
100000000000200000000000000000000000000000000000,
|
|
100000000000200000000000000000000000100000000000,
|
|
100000000000000000000000000000000000000000000000,
|
|
100000000000000000000000100000000000000000000000,
|
|
100000000000000000000000000000000000000000000000,
|
|
100000000000200000200000000000000000000000000000,
|
|
100000000000200000000000100000000000200000000000,
|
|
500000000000000000000000000000000000000800000000,
|
|
000000000000000000000000000000000000000000000000,
|
|
100000000000200000200000000000000000000000000000,
|
|
100000000000200000000000100000000000200000000000,
|
|
500000000000000000000000000000000000000800000000,
|
|
000000000000000000000000000000000000000000000000,
|
|
100000000000200000000000000000000000200000000000,
|
|
100000000000200000000000000000100000100000000000,
|
|
100000000000200000000000000000000000200000000000,
|
|
100000000000200000000000000000100000100000000000,
|
|
100000000000200000000000000000000000200000000000,
|
|
100000000000000000000000000000000000000000000000,
|
|
100000000000200000000000000000100000100000000000,
|
|
100000000000000000000000000000000000000000000000,
|
|
100000000000200000000000100000000000200000000000,
|
|
100000000000100000100000100000000000000000000000,
|
|
100000000000200000000000100000000000200000000000,
|
|
100000000000000000000000000000000000000000000000,
|
|
100000000000200000000000100000000000200000000000,
|
|
100000000000100000100000100000000000000000000000,
|
|
100000000000200000000000100000000000200000000000,
|
|
500000000000000000000000000000800000000000000000,
|
|
300000000000000000000000000000000000000000000000,
|
|
#GOGOSTART
|
|
100000000000200000000000100000100000100000000000,
|
|
100000000000200000000000100000000000200000000000,
|
|
100000000000200000000000100000100000100000000000,
|
|
100000000000000000000000000000000000000000000000,
|
|
100000000000200000000000100000100000100000000000,
|
|
100000000000200000000000100000000000200000000000,
|
|
300000000000000000000000300000000000000000000000,
|
|
300000000000000000000000000000000000000000000000,
|
|
100000000000200000000000100000100000100000000000,
|
|
100000000000200000000000100000000000200000000000,
|
|
100000000000100000000000100000100000100000000000,
|
|
100000000000000000000000000000000000000000000000,
|
|
100000000000200000000000100000000000200000000000,
|
|
100000000000000000000000300000000000300000000000,
|
|
300000000000000000000000600000000000000000000000,
|
|
000000800000000000000000000000000000000000000000,
|
|
#GOGOEND
|
|
|
|
|
|
#END
|
|
|
|
|
|
COURSE:Easy
|
|
LEVEL:3
|
|
BALLOON:8
|
|
SCOREINIT:990
|
|
SCOREDIFF:545
|
|
|
|
|
|
#START
|
|
|
|
|
|
000000000000000000000000000000000000000000000000,
|
|
000000000000000000000000000000000000000000000000,
|
|
000000000000000000000000000000000000000000000000,
|
|
000000000000000000000000000000000000000000000000,
|
|
000000000000000000000000000000000000000000000000,
|
|
000000000000000000000000000000000000000000000000,
|
|
700000000000000000000000000000000000800000000000,
|
|
000000000000000000000000000000000000000000000000,
|
|
#BPMCHANGE 167
|
|
#MEASURE 3/4
|
|
000000000000000000000000000000000000,
|
|
000000000000000000000000000000000000,
|
|
#BPMCHANGE 170
|
|
#MEASURE 4/4
|
|
100000000000100000000000100000000000000000000000,
|
|
100000000000100000000000100000000000000000000000,
|
|
100000000000000000000000100000000000000000000000,
|
|
200000000000200000000000200000000000000000000000,
|
|
100000000000100000000000100000000000000000000000,
|
|
100000000000100000000000100000000000000000000000,
|
|
100000000000000000000000100000000000000000000000,
|
|
500000000000000000000000000000000000800000000000,
|
|
000000000000000000000000000000000000000000000000,
|
|
100000000000000000000000000000000000000000000000,
|
|
200000000000000000000000200000000000000000000000,
|
|
100000000000000000000000000000000000000000000000,
|
|
000000000000000000000000000000000000000000000000,
|
|
100000000000000000000000000000000000000000000000,
|
|
200000000000000000000000200000000000000000000000,
|
|
100000000000000000000000000000000000000000000000,
|
|
000000000000000000000000000000000000000000000000,
|
|
100000000000000000000000000000000000000000000000,
|
|
100000000000000000000000100000000000000000000000,
|
|
100000000000000000000000000000000000000000000000,
|
|
100000000000000000000000100000000000000000000000,
|
|
100000000000000000000000000000000000000000000000,
|
|
100000000000000000000000000000000000000000000000,
|
|
100000000000000000000000100000000000000000000000,
|
|
100000000000000000000000000000000000000000000000,
|
|
100000000000000000000000000000000000000000000000,
|
|
100000000000000000000000100000000000000000000000,
|
|
500000000000000000000000000000000000800000000000,
|
|
000000000000000000000000000000000000000000000000,
|
|
100000000000000000000000000000000000000000000000,
|
|
100000000000000000000000100000000000000000000000,
|
|
500000000000000000000000000000000000800000000000,
|
|
000000000000000000000000000000000000000000000000,
|
|
100000000000000000000000000000000000000000000000,
|
|
100000000000000000000000100000000000000000000000,
|
|
100000000000000000000000000000000000000000000000,
|
|
100000000000000000000000100000000000000000000000,
|
|
100000000000000000000000000000000000000000000000,
|
|
100000000000000000000000000000000000000000000000,
|
|
100000000000000000000000100000000000000000000000,
|
|
100000000000000000000000000000000000000000000000,
|
|
100000000000000000000000200000000000000000000000,
|
|
100000000000100000000000100000000000000000000000,
|
|
100000000000000000000000200000000000000000000000,
|
|
100000000000000000000000000000000000000000000000,
|
|
100000000000000000000000200000000000000000000000,
|
|
100000000000100000000000100000000000000000000000,
|
|
100000000000100000000000100000000000100000000000,
|
|
500000000000000000000000000000000000800000000000,
|
|
000000000000000000000000000000000000000000000000,
|
|
#GOGOSTART
|
|
100000000000000000000000100000000000100000000000,
|
|
100000000000000000000000200000000000200000000000,
|
|
200000000000000000000000200000000000200000000000,
|
|
200000000000000000000000000000000000000000000000,
|
|
100000000000000000000000100000000000100000000000,
|
|
100000000000000000000000200000000000000000000000,
|
|
300000000000000000000000300000000000000000000000,
|
|
600000000000800000000000000000000000000000000000,
|
|
100000000000000000000000100000000000100000000000,
|
|
100000000000000000000000200000000000000000000000,
|
|
200000000000000000000000200000000000200000000000,
|
|
200000000000000000000000000000000000000000000000,
|
|
100000000000100000000000100000000000000000000000,
|
|
100000000000000000000000300000000000000000000000,
|
|
300000000000000000000000600000000000000000000000,
|
|
000000000008000000000000000000000000000000000000,
|
|
#GOGOEND
|
|
|
|
|
|
#END
|
|
|