Files
ESE/01 Pop/LOVE RAIN ~Koi no Ame~/LOVE RAIN ~Koi no Ame~.tja
T
2023-06-15 19:00:23 -05:00

558 lines
21 KiB
Plaintext
Raw Blame History

This file contains ambiguous Unicode characters
This file contains Unicode characters that might be confused with other characters. If you think that this is intentional, you can safely ignore this warning. Use the Escape button to reveal them.
//TJADB Project
TITLE:LOVE RAIN ~Koi no Ame~
TITLEJA:LOVE RAIN ~恋の雨~
SUBTITLE:--Toshinobu Kubota/Tsuki no Koibito ~Moon Lovers~
BPM:110
WAVE:LOVE RAIN ~Koi no Ame~.ogg
OFFSET:-3.573
DEMOSTART:82.652
COURSE:Oni
LEVEL:7
BALLOON:19,26
SCOREINIT:850
SCOREDIFF:220
#START
000000000000000000000000000000000000000000000000,
000000000000000000000000000000000000000000000000,
000000000000100000000000100000000000100000000000,
300000000000000000000000000000000000000000000000,
100000000000000000000000100000000000000000000000,
100000000000000000000000000000000000000000000000,
100000000000000000000000100000000100000000100000,
100000000000000000000000000000000000000000000000,
300000000000000000000000000000000000400000000000,
100100000100200000100000100100000100200000100000,
100100000100200000100000100100000100200000000000,
100100000100200000100000100100000100200000100000,
100100000000100100000000100100000000000000000000,
100000000000200000000000200000200000200000000000,
100000000000200000000000100000100000200000000000,
100000000000200000000000100000100000200000000000,
100100200000100100200000100100200000200000000000,
100000000000200000000000200000200000200000000000,
100000000000200000000000100000000000100100000100,
000000100000200100100100000000100000200100000100,
000000100000200100100100000000100000200000000000,
100000000000200000000000200000200000200000000000,
100000000000200000000000100000100000200000000000,
100000000000200000000000100000100000200000000000,
100100200000100100200000100100200000200000000000,
100000000000200000000000200000200000200000000000,
100000000000200000000000100000000000100100000100,
000000100000200100100100000000100000200100000100,
000000100000200100100100000000100000200000000000,
100000000000200000000000100000000100200000000000,
100000000100200000100000000000100000200000000000,
100000000000200000000000100100100000200000000000,
100200100000100200100000100200100000100200100000,
100000000000200000000000100000000100200000000000,
100000000100200000100000000000100000200000000000,
100100100000200000100000100100100000200000100000,
#GOGOSTART
400000000000300000000000300000000000400000000000,
300000200000100200000000100000200000100200000000,
100200100000100000200100000200100000100200000000,
100200100000200000100200000200100000200000100000,
100200100000200000100200100000100000200100000000,
100000100000200100000000100000100000200100000000,
100200100000200100000000100200100000200100000000,
700000000000000000000000000000000000000000800000,
000000000000300000000000300000000000300000000000,
300000200100100200000000100000200100100200000000,
100200100000100100200100000200100000100200000000,
100200100000200100100200000200100000200000100000,
100200100000200000100200100000100100200100000000,
100000100100200100000000100000100100200100000000,
300000000000400000000000700000000000000000000000,
000000000000000000000000000000000000000000800000,
#GOGOEND
#END
COURSE:Hard
LEVEL:5
STYLE:Double
BALLOON:15,21
SCOREINIT:840
SCOREDIFF:230
#START P1
000000000000000000000000000000000000000000000000,
000000000000000000000000000000000000000000000000,
000000000000100000000000100000000000100000000000,
300000000000000000000000000000000000000000000000,
100000000000000000000000100000000000000000000000,
100000000000000000000000000000000000000000000000,
100000000000000000000000100000000000100000000000,
100000000000000000000000000000000000000000000000,
300000000000000000000000000000000000400000000000,
100000100000200000000000100000100000200000000000,
100000100000200000000000100000000000200000000000,
100000100000200000000000100000100000200000000000,
300000000000300000000000300000000000000000000000,
100000000000200000000000200000200000200000000000,
100000000000200000000000100000000000200000000000,
100000000000200000000000100000100000200000000000,
100000200000100000200000100000100000200000000000,
10202220,
1000200010001101,
0010000020001101,
01002000,
100000000000200000000000200000200000200000000000,
100000000000200000000000100000000000200000000000,
100000000000200000000000100000100000200000000000,
100000200000100000200000100000100000200000000000,
10202220,
1000200010001101,
0010000020001101,
01002000,
100000000000200000000000100000100000200000000000,
100000000100200000100000000000000000200000000000,
100000000000200000000000100000100000200000000000,
100100000000100100000000100100000000100100000000,
100000000000200000000000100000100000200000000000,
100000000100200000100000000000000000200000000000,
100000000000200000000000100000100000200000100000,
#GOGOSTART
400000000000300000000000300000000000400000000000,
300000200000100100000000100000200000100100000000,
100000200000100100000000100000200000100100000000,
100100100000200000000000100100100000200000000000,
100000000000000000000000100000000100000000100000,
100000200000100100000000100000200000100100000000,
100000200000100100000100100000200000100100000000,
700000000000000000000000000000000000000000000800,
000000000000300000000000300000000000300000000000,
300000200000100100000000100000200000100100000000,
100000200000100100000000100000200000100100000000,
100100100000200000000000100100100000200000000000,
100000000000000000000000100000000100000000100000,
100000200000100100000000100000200000100100000000,
300000000000000000000000700000000000000000000000,
000000000000000000000000000000000000000000000800,
#GOGOEND
#END
#START P2
000000000000000000000000000000000000000000000000,
000000000000000000000000000000000000000000000000,
000000000000100000000000100000000000100000000000,
300000000000000000000000000000000000000000000000,
100000000000000000000000100000000000000000000000,
100000000000000000000000000000000000000000000000,
100000000000000000000000100000000000100000000000,
100000000000000000000000000000000000000000000000,
300000000000000000000000000000000000400000000000,
100000100000200000000000100000100000200000000000,
100000100000200000000000100000000000200000000000,
100000100000200000000000100000100000200000000000,
300000000000300000000000300000000000000000000000,
100000000000200000000000200000200000200000000000,
100000000000200000000000100000000000200000000000,
100000000000200000000000100000100000200000000000,
100000200000100000200000100000100000200000000000,
10202220,
1210,
2000110100100000,
2000110100100000,
100000000000200000000000200000200000200000000000,
100000000000200000000000100000000000200000000000,
100000000000200000000000100000100000200000000000,
100000200000100000200000100000100000200000000000,
10202220,
1210,
2000110100100000,
2000110100100000,
100000000000200000000000100000100000200000000000,
100000000100200000100000000000000000200000000000,
100000000000200000000000100000100000200000000000,
100100000000100100000000100100000000100100000000,
100000000000200000000000100000100000200000000000,
100000000100200000100000000000000000200000000000,
100000000000200000000000100000100000200000100000,
#GOGOSTART
400000000000300000000000300000000000400000000000,
300000200000100100000000100000200000100100000000,
100000200000100100000000100000200000100100000000,
100100100000200000000000100100100000200000000000,
100000000000000000000000100000000100000000100000,
100000200000100100000000100000200000100100000000,
100000200000100100000100100000200000100100000000,
700000000000000000000000000000000000000000000800,
000000000000300000000000300000000000300000000000,
300000200000100100000000100000200000100100000000,
100000200000100100000000100000200000100100000000,
100100100000200000000000100100100000200000000000,
100000000000000000000000100000000100000000100000,
100000200000100100000000100000200000100100000000,
300000000000000000000000700000000000000000000000,
000000000000000000000000000000000000000000000800,
#GOGOEND
#END
STYLE:Single
BALLOON:15,21
SCOREINIT:870
SCOREDIFF:210
#START
000000000000000000000000000000000000000000000000,
000000000000000000000000000000000000000000000000,
000000000000100000000000100000000000100000000000,
300000000000000000000000000000000000000000000000,
100000000000000000000000100000000000000000000000,
100000000000000000000000000000000000000000000000,
100000000000000000000000100000000000100000000000,
100000000000000000000000000000000000000000000000,
300000000000000000000000000000000000400000000000,
100000100000200000000000100000100000200000000000,
100000100000200000000000100000000000200000000000,
100000100000200000000000100000100000200000000000,
300000000000300000000000300000000000000000000000,
100000000000200000000000200000200000200000000000,
100000000000200000000000100000000000200000000000,
100000000000200000000000100000100000200000000000,
100000200000100000200000100000100000200000000000,
100000000000200000000000200000200000200000000000,
100000000000200000000000100000000000100100000100,
000000100000200200000200000000200000100100000100,
000000100000200200000200000000200000000000000000,
100000000000200000000000200000200000200000000000,
100000000000200000000000100000000000200000000000,
100000000000200000000000100000100000200000000000,
100000200000100000200000100000100000200000000000,
100000000000200000000000200000200000200000000000,
100000000000200000000000100000000000100100000100,
000000100000200200000200000000200000100100000100,
000000100000200200000200000000200000000000000000,
100000000000200000000000100000100000200000000000,
100000000100200000100000000000000000200000000000,
100000000000200000000000100000100000200000000000,
100100000000100100000000100100000000100100000000,
100000000000200000000000100000100000200000000000,
100000000100200000100000000000000000200000000000,
100000000000200000000000100000100000200000100000,
#GOGOSTART
400000000000300000000000300000000000400000000000,
300000200000100100000000100000200000100100000000,
100000200000100100000000100000200000100100000000,
100100100000200000000000100100100000200000000000,
100000000000000000000000100000000100000000100000,
100000200000100100000000100000200000100100000000,
100000200000100100000100100000200000100100000000,
700000000000000000000000000000000000000000000008,
000000000000300000000000300000000000300000000000,
300000200000100100000000100000200000100100000000,
100000200000100100000000100000200000100100000000,
100100100000200000000000100100100000200000000000,
100000000000000000000000100000000100000000100000,
100000200000100100000000100000200000100100000000,
300000000000000000000000700000000000000000000000,
000000000000000000000000000000000000000000000008,
#GOGOEND
#END
COURSE:Normal
LEVEL:4
STYLE:Double
BALLOON:12,18
SCOREINIT:950
SCOREDIFF:260
#START P1
000000000000000000000000000000000000000000000000,
000000000000000000000000000000000000000000000000,
000000000000100000000000100000000000100000000000,
300000000000000000000000000000000000000000000000,
100000000000000000000000100000000000000000000000,
100000000000000000000000000000000000000000000000,
100000000000000000000000100000000000100000000000,
100000000000000000000000000000000000000000000000,
300000000000000000000000000000000000000000000000,
100000000000200000000000100000000000000000000000,
100000000000200000000000100000000000000000000000,
100000000000200000000000100000000000000000000000,
300000000000300000000000300000000000000000000000,
100000000000200000000000100000100000100000000000,
100000000000200000000000100000000000200000000000,
100000000000200000000000100000100000100000000000,
100000000000100000000000100000000000000000000000,
10201110,
1211,
11000010,
11000000,
100000000000200000000000100000100000100000000000,
100000000000200000000000100000000000200000000000,
100000000000200000000000100000100000100000000000,
100000000000100000000000100000000000000000000000,
10201110,
1211,
11000010,
11000000,
100000000000200000000000000000000000200000000000,
100000000000100000000000100000000000000000000000,
100000000000200000000000100000000000200000000000,
500000000000000000000000000000800000000000000000,
100000000000200000000000000000000000200000000000,
100000000000100000000000100000000000000000000000,
100000000000200000000000100000100000100000000000,
#GOGOSTART
400000000000300000000000300000000000300000000000,
300000000000200000000000100000100000100000000000,
100000000000200000000000100000000000000000000000,
100000100000100000000000100000100000100000000000,
100000000000000000000000100000000000100000000000,
100000000000200000000000100000100000100000000000,
100000000000200000000000100000000000000000000000,
700000000000000000000000000000000000000000800000,
000000000000300000000000300000000000300000000000,
300000000000200000000000100000100000100000000000,
100000000000200000000000100000000000000000000000,
100000100000100000000000100000100000100000000000,
100000000000000000000000100000000000100000000000,
100000000000200000000000100000100000100000000000,
300000000000000000000000900000000000000000000000,
000000000000000000000000000000000000000000800000,
#GOGOEND
#END
#START P2
000000000000000000000000000000000000000000000000,
000000000000000000000000000000000000000000000000,
000000000000100000000000100000000000100000000000,
300000000000000000000000000000000000000000000000,
100000000000000000000000100000000000000000000000,
100000000000000000000000000000000000000000000000,
100000000000000000000000100000000000100000000000,
100000000000000000000000000000000000000000000000,
300000000000000000000000000000000000000000000000,
100000000000200000000000100000000000000000000000,
100000000000200000000000100000000000000000000000,
100000000000200000000000100000000000000000000000,
300000000000300000000000300000000000000000000000,
100000000000200000000000100000100000100000000000,
100000000000200000000000100000000000200000000000,
100000000000200000000000100000100000100000000000,
100000000000100000000000100000000000000000000000,
10201110,
1210,
00101100,
00101100,
100000000000200000000000100000100000100000000000,
100000000000200000000000100000000000200000000000,
100000000000200000000000100000100000100000000000,
100000000000100000000000100000000000000000000000,
10201110,
1210,
00101100,
00101100,
100000000000200000000000000000000000200000000000,
100000000000100000000000100000000000000000000000,
100000000000200000000000100000000000200000000000,
500000000000000000000000000000800000000000000000,
100000000000200000000000000000000000200000000000,
100000000000100000000000100000000000000000000000,
100000000000200000000000100000100000100000000000,
#GOGOSTART
400000000000300000000000300000000000300000000000,
300000000000200000000000100000100000100000000000,
100000000000200000000000100000000000000000000000,
100000100000100000000000100000100000100000000000,
100000000000000000000000100000000000100000000000,
100000000000200000000000100000100000100000000000,
100000000000200000000000100000000000000000000000,
700000000000000000000000000000000000000000800000,
000000000000300000000000300000000000300000000000,
300000000000200000000000100000100000100000000000,
100000000000200000000000100000000000000000000000,
100000100000100000000000100000100000100000000000,
100000000000000000000000100000000000100000000000,
100000000000200000000000100000100000100000000000,
300000000000000000000000900000000000000000000000,
000000000000000000000000000000000000000000800000,
#GOGOEND
#END
STYLE:Single
BALLOON:12,18
SCOREINIT:910
SCOREDIFF:250
#START
000000000000000000000000000000000000000000000000,
000000000000000000000000000000000000000000000000,
000000000000100000000000100000000000100000000000,
300000000000000000000000000000000000000000000000,
100000000000000000000000100000000000000000000000,
100000000000000000000000000000000000000000000000,
100000000000000000000000100000000000100000000000,
100000000000000000000000000000000000000000000000,
300000000000000000000000000000000000000000000000,
100000000000200000000000100000000000000000000000,
100000000000200000000000100000000000000000000000,
100000000000200000000000100000000000000000000000,
300000000000300000000000300000000000000000000000,
100000000000200000000000100000100000100000000000,
100000000000200000000000100000000000200000000000,
100000000000200000000000100000100000100000000000,
100000000000100000000000100000000000000000000000,
100000000000200000000000100000100000100000000000,
100000000000200000000000100000000000200000000000,
100000100000000000000000100000100000000000000000,
100000100000000000000000100000100000000000000000,
100000000000200000000000100000100000100000000000,
100000000000200000000000100000000000200000000000,
100000000000200000000000100000100000100000000000,
100000000000100000000000100000000000000000000000,
100000000000200000000000100000100000100000000000,
100000000000200000000000100000000000200000000000,
100000100000000000000000100000100000000000000000,
100000100000000000000000100000100000000000000000,
100000000000200000000000000000000000200000000000,
100000000000100000000000100000000000000000000000,
100000000000200000000000100000000000200000000000,
500000000000000000000000000000800000000000000000,
100000000000200000000000000000000000200000000000,
100000000000100000000000100000000000000000000000,
100000000000200000000000100000100000100000000000,
#GOGOSTART
400000000000300000000000300000000000300000000000,
300000000000200000000000100000100000100000000000,
100000000000200000000000100000000000000000000000,
100000100000100000000000100000100000100000000000,
100000000000000000000000100000000000100000000000,
100000000000200000000000100000100000100000000000,
100000000000200000000000100000000000000000000000,
700000000000000000000000000000000000000000800000,
000000000000300000000000300000000000300000000000,
300000000000200000000000100000100000100000000000,
100000000000200000000000100000000000000000000000,
100000100000100000000000100000100000100000000000,
100000000000000000000000100000000000100000000000,
100000000000200000000000100000100000100000000000,
300000000000000000000000900000000000000000000000,
000000000000000000000000000000000000000000800000,
#GOGOEND
#END
COURSE:Easy
LEVEL:2
BALLOON:8,16
SCOREINIT:710
SCOREDIFF:250
#START
000000000000000000000000000000000000000000000000,
000000000000000000000000000000000000000000000000,
000000000000100000000000100000000000100000000000,
300000000000000000000000000000000000000000000000,
100000000000000000000000000000000000000000000000,
100000000000000000000000100000000000000000000000,
100000000000000000000000100000000000100000000000,
100000000000000000000000000000000000000000000000,
300000000000000000000000000000000000000000000000,
100000000000100000000000100000000000000000000000,
100000000000100000000000100000000000000000000000,
100000000000100000000000100000000000000000000000,
300000000000300000000000300000000000000000000000,
100000000000000000000000200000000000000000000000,
100000000000000000000000200000000000000000000000,
100000000000100000000000100000000000000000000000,
200000000000200000000000200000000000000000000000,
100000000000000000000000200000000000000000000000,
100000000000000000000000200000000000000000000000,
300000000000300000000000000000000000000000000000,
300000000000300000000000000000000000000000000000,
100000000000000000000000200000000000000000000000,
100000000000000000000000200000000000000000000000,
100000000000100000000000100000000000000000000000,
200000000000200000000000200000000000000000000000,
100000000000000000000000200000000000000000000000,
100000000000000000000000200000000000000000000000,
300000000000300000000000000000000000000000000000,
300000000000300000000000000000000000000000000000,
100000000000000000000000100000000000000000000000,
100000000000100000000000100000000000000000000000,
100000000000000000000000100000000000000000500000,
000000000000000000000000000000800000000000000000,
100000000000000000000000100000000000000000000000,
100000000000100000000000100000000000000000000000,
100000000000000000000000100000000000000000000000,
#GOGOSTART
400000000000300000000000300000000000300000000000,
300000000000000000000000100000000000100000000000,
100000000000000000000000200000000000000000000000,
100000000000100000000000100000000000000000000000,
200000000000000000000000100000000000100000000000,
100000000000000000000000200000000000000000000000,
100000000000100000000000100000000000000000000000,
700000000000000000000000000000800000000000000000,
000000000000300000000000300000000000300000000000,
300000000000000000000000100000000000100000000000,
100000000000000000000000200000000000000000000000,
100000000000100000000000100000000000000000000000,
200000000000000000000000100000000000100000000000,
100000000000000000000000200000000000000000000000,
300000000000000000000000900000000000000000000000,
000000000000000000000000000000000000000000800000,
#GOGOEND
#END