Files
ESE/01 Pop/Last Christmas/Last Christmas.tja
T

366 lines
5.2 KiB
Plaintext

//TJADB Project
TITLE:Last Christmas
TITLEJA:LAST CHRISTMAS
SUBTITLE:--Wham!
BPM:107
WAVE:Last Christmas.ogg
OFFSET:-2.299
DEMOSTART:20.230
COURSE:Oni
LEVEL:7
BALLOON:3,3,7,13,25
SCOREINIT:560
SCOREDIFF:143
#START
30221022,
1020202010202220,
10421022,
1020202011202022,
21421022,
1020202010202220,
10421022,
1020121020022022,
#GOGOSTART
1110201202102000,
1010201110202010,
1010200011102010,
1010201111200200,
1110201111102010,
1010201111202010,
1010201110102122,
1020221020122022,
1110201202102000,
1010201110102010,
1010200011102010,
1010201111102022,
1110201111102010,
1010201111102010,
1010201110102122,
1010201210202022,
#GOGOEND
10007807,
80002222,
11307080,
00002222,
78,
00002222,
7,
00802220,
10201102,
500000000008000000500000000000000008000000000000,
0020202010100022,
1212021020122022,
1000201200102000,
1010201201202000,
1020002011102000,
1010221011200200,
0000202222000020,
12121220,
1000201010102011,
1120121011121022,
500008000000200000100100100000100000200000500000,
000008000000200000100100100000100000200000100000,
20220222,
2010201110002022,
#GOGOSTART
1110201202102000,
1010201110102010,
1010200011102010,
1010201111202022,
1110201111102010,
1010201111102010,
1010201110102111,
1020121020122022,
1110201202102000,
1010201110102010,
1010200011102010,
1010201111202022,
1110201111102010,
1010201111102010,
1010201110102111,
1020121020122022,
#GOGOEND
1400,
#END
COURSE:Hard
LEVEL:5
BALLOON:2,2,5,10,20
SCOREINIT:560
SCOREDIFF:148
#START
30221022,
1020202010202220,
10421022,
1020202011102020,
21421022,
1020202010202220,
10421022,
1020020020022020,
#GOGOSTART
1000202201102000,
11210221,
11201021,
1010201000200200,
10210121,
11210221,
1010201000102220,
1020220020022000,
1000202201102000,
11210121,
11201021,
11210120,
10210121,
11210121,
11210121,
01201220,
#GOGOEND
10007807,
80002222,
11307080,
00002222,
78,
00002222,
7,
00802220,
10201102,
500000000008000000500000000000000008000000000000,
02221102,
1110022020111020,
1000201100102000,
1010201102202000,
1020002011102000,
1010222011100200,
0000202220000020,
12121220,
1000201010102011,
1020111011101022,
500008000000200000100100100000200000200000500000,
000008000000200000100100100000100000200000100000,
20220222,
2010201110002020,
#GOGOSTART
1000202201102000,
11210121,
11201021,
11210220,
10210121,
11210121,
11210121,
0020020020022000,
1000202201102000,
11210121,
11201021,
11210220,
10210121,
11210121,
11210121,
0020020020022000,
#GOGOEND
1400,
,
,
,
#END
COURSE:Normal
LEVEL:5
BALLOON:3,3,6,12
SCOREINIT:710
SCOREDIFF:213
#START
30222020,
10220220,
10422020,
10220220,
10422020,
10220220,
10422022,
2020020020002000,
#GOGOSTART
10220100,
10110220,
11101020,
100000100000100000500000000008000000000000000000,
10220000,
10110220,
11110111,
02000000,
10220100,
10110020,
11101020,
100000100000100000500000000008000000000000000000,
10220000,
10110020,
11110111,
02000000,
#GOGOEND
10002007,
08002220,
11307080,
00002220,
78,
00002220,
7,
00802220,
10201100,
500000000008000000500000000000000008000000000000,
02201101,
11020102,
0000200100100000,
1010100200200000,
02022200,
100000000000500000000000000008000000000000000000,
00222001,
10102220,
10111101,
02201020,
500008000000000000100000000000200000000000500000,
000008000000000000100000000000100000100000100000,
10220222,
20220000,
#GOGOSTART
10220100,
11110020,
11101020,
100000100000100000500000000008000000000000000000,
10220000,
11110020,
11110111,
02000000,
10220100,
11110020,
11101020,
100000100000100000500000000008000000000000000000,
10220000,
11110020,
11110111,
02000000,
#GOGOEND
500000000000000000000008000000000000000000000000,
,
,
,
#END
COURSE:Easy
LEVEL:4
BALLOON:2,2,5,10
SCOREINIT:860
SCOREDIFF:340
#START
3110,
1101,
1110,
1101,
1110,
1101,
1110,
12,
#GOGOSTART
10010100,
10010000,
1110,
100000000000000000500000000008000000000000000000,
10010000,
10010000,
10010005,
000000000000000000000008000000000000000000000000,
10010100,
10010000,
1110,
100000000000000000500000000008000000000000000000,
10010000,
10010000,
10010005,
000000000000000000000008000000000000000000000000,
#GOGOEND
10002007,
08000000,
1178,
0011,
78,
0011,
7,
8022,
0110,
500000000008000000500000000000000008000000000000,
0110,
10020202,
0000100100100000,
1000000200200000,
02002000,
100000000000500000000000000008000000000000000000,
0220,
100000000000100000000000500000000008000000000000,
10010105,
000000000008000000000000100000000000100000000000,
500008000000000000100000000000000000000000500000,
000008000000000000100000000000000000100000000000,
10010020,
20020000,
#GOGOSTART
10010100,
10010000,
1110,
100000000000000000500000000008000000000000000000,
10010000,
10010000,
10010005,
000000000000000000000008000000000000000000000000,
10010100,
10010000,
1110,
100000000000000000500000000008000000000000000000,
10010000,
10010000,
10010005,
000000000000000000000008000000000000000000000000,
#GOGOEND
500000000000000000000008000000000000000000000000,
,
,
,
#END