880 lines
19 KiB
Plaintext
880 lines
19 KiB
Plaintext
//TJADB Project
|
|
TITLE:Li Kai Di Qiu Biao Mian
|
|
TITLEZH:離開地球表面
|
|
SUBTITLE:--Mayday
|
|
SUBTITLEZH:五月天
|
|
BPM:137
|
|
WAVE:Li Kai Di Qiu Biao Mian.ogg
|
|
OFFSET:-5.269
|
|
DEMOSTART:56.833
|
|
|
|
COURSE:Oni
|
|
LEVEL:8
|
|
SCOREINIT:860
|
|
SCOREDIFF:210
|
|
|
|
|
|
#START
|
|
|
|
|
|
#SCROLL 1.00729927007
|
|
100000000000200000000000100000100000200000100000,
|
|
#BPMCHANGE 139
|
|
#SCROLL 0.99280575539
|
|
000000100000200000000000100000100000200000000000,
|
|
#BPMCHANGE 137
|
|
#SCROLL 1.00729927007
|
|
100000000000100000000000200000100000200000100000,
|
|
#BPMCHANGE 141
|
|
#SCROLL 0.97872340425
|
|
000000100000200000000000100100100000200000200200,
|
|
#BPMCHANGE 136.5
|
|
#SCROLL 1.01098901099
|
|
100000000000200000000000200000100000200000100000,
|
|
#BPMCHANGE 137.5
|
|
#SCROLL 1.00363636364
|
|
000000100000200000000000100000100000200000000000,
|
|
#BPMCHANGE 139.8
|
|
#SCROLL 0.98712446351
|
|
100000000000100000000000200000100000200000100000,
|
|
#BPMCHANGE 125
|
|
#SCROLL 1.104
|
|
200000000000
|
|
#BPMCHANGE 142
|
|
#SCROLL 0.97183098591
|
|
200000100000000000100000
|
|
#BPMCHANGE 141
|
|
#SCROLL 0.97872340425
|
|
200000100100,
|
|
#BPMCHANGE 139
|
|
#SCROLL 0.99280575539
|
|
200000000000200000100000000000100000200000100000,
|
|
#BPMCHANGE 137
|
|
#SCROLL 1.00729927007
|
|
100000200000000000100000200000000000100000200000,
|
|
#BPMCHANGE 135
|
|
#SCROLL 1.02222222222
|
|
000000000000000000000000000000000000000000000000,
|
|
#BPMCHANGE 138.5
|
|
#SCROLL 0.99638989169
|
|
100000000000100000000000100000000000100000000000,
|
|
#BPMCHANGE 138
|
|
#SCROLL 1
|
|
100000000000100000000000100000000000100000000000,
|
|
#BPMCHANGE 139
|
|
#SCROLL 0.99280575539
|
|
100000000000100000000000100000000000100000000000,
|
|
#BPMCHANGE 137.5
|
|
#SCROLL 1.00363636364
|
|
100000000000100000000000100000000000100000000000,
|
|
#BPMCHANGE 137
|
|
#SCROLL 1.00729927007
|
|
100000000000100000000000100000000000100000000000,
|
|
#BPMCHANGE 139.5
|
|
#SCROLL 0.98924731182
|
|
100000200000100000200000100000200000100000200200,
|
|
#BPMCHANGE 138
|
|
#SCROLL 1
|
|
100000200000100000200000100000200000100000200200,
|
|
#BPMCHANGE 139
|
|
#SCROLL 0.99280575539
|
|
100000200000100000200000100000200000100000200200,
|
|
#BPMCHANGE 138
|
|
#SCROLL 1
|
|
100000200000100000200000100000100100200000200100,
|
|
#BPMCHANGE 137.5
|
|
#SCROLL 1.00363636364
|
|
100000200000100000200200100000200000100000200200,
|
|
#BPMCHANGE 137
|
|
#SCROLL 1.00729927007
|
|
100000200000100000200200100000200000100000200200,
|
|
#BPMCHANGE 139
|
|
#SCROLL 0.99280575539
|
|
100000100100200000200200100000100100200000200200,
|
|
100000100100200000200200100000100100200000200200,
|
|
#BPMCHANGE 137
|
|
#SCROLL 1.00729927007
|
|
100000200000100000200000100000200000100000200200,
|
|
100000200000100000200000100000200000100000400000,
|
|
#BPMCHANGE 138
|
|
#SCROLL 1
|
|
000000100100200000100000100100100000000000400000,
|
|
#BPMCHANGE 139
|
|
#SCROLL 0.99280575539
|
|
000000100100200000100000100100100000000000400000,
|
|
000000000000300000000000300000100100100000600000,
|
|
#BPMCHANGE 132
|
|
#SCROLL 1.04545454545
|
|
000000000000000000000008000000000000
|
|
#BPMCHANGE 145
|
|
#SCROLL 0.95172413793
|
|
000000000000,
|
|
|
|
#GOGOSTART
|
|
#BPMCHANGE 138
|
|
#SCROLL 1
|
|
100000100100200000100000100000100100200000100100,
|
|
#BPMCHANGE 139
|
|
#SCROLL 0.99280575539
|
|
100000100100200000200200100000100100200000200200,
|
|
100000100100200000100000100000100100200000300000,
|
|
#BPMCHANGE 137
|
|
#SCROLL 1.00729927007
|
|
000000300000000000400000000000000000200000200200,
|
|
100000100000200000100000000000100000200000100000,
|
|
#BPMCHANGE 139
|
|
#SCROLL 0.99280575539
|
|
000000100000200000100100200000200000200000000000,
|
|
#BPMCHANGE 140
|
|
#SCROLL 0.98571428571
|
|
300000400000000000300000400000000000300000400000,
|
|
#BPMCHANGE 127
|
|
#SCROLL 1.08661417323
|
|
000000100000
|
|
#BPMCHANGE 141
|
|
#SCROLL 0.97872340425
|
|
200000000000100000100100200000100100,
|
|
#BPMCHANGE 136.5
|
|
#SCROLL 1.01098901099
|
|
100000100100200000100000100000100100200000100100,
|
|
#BPMCHANGE 138.5
|
|
#SCROLL 0.99638989169
|
|
100000100100200000200200100000100100200000200200,
|
|
#BPMCHANGE 138
|
|
#SCROLL 1
|
|
100000100100200000100000100000100100200000300000,
|
|
#BPMCHANGE 137.5
|
|
#SCROLL 1.00363636364
|
|
000000300000000000400000000000000000200000200200,
|
|
#BPMCHANGE 140
|
|
#SCROLL 0.98571428571
|
|
100000100000200000100000000000100000200000100000,
|
|
#BPMCHANGE 136
|
|
#SCROLL 1.01470588235
|
|
000000100000200000100100200000200000200000000000,
|
|
#BPMCHANGE 139
|
|
#SCROLL 0.99280575539
|
|
300000400000000000300000400000000000300000600000,
|
|
000000000000000000000000000000000008000000000000,
|
|
#BPMCHANGE 135.5
|
|
#SCROLL 1.0184501845
|
|
100000000000100000000000100000000000100000000000,
|
|
#BPMCHANGE 139
|
|
#SCROLL 0.99280575539
|
|
100000000000100000000000100000000000000000000000,
|
|
#BPMCHANGE 138.5
|
|
#SCROLL 0.99638989169
|
|
200000200000000000200000200000000000200000500000,
|
|
#BPMCHANGE 136
|
|
#SCROLL 1.01470588235
|
|
000000000000000000000000000000000008000000000000,
|
|
|
|
#GOGOEND
|
|
|
|
|
|
#END
|
|
|
|
|
|
COURSE:Hard
|
|
LEVEL:6
|
|
SCOREINIT:790
|
|
SCOREDIFF:200
|
|
|
|
|
|
#START
|
|
|
|
|
|
#SCROLL 1.00729927007
|
|
10201121,
|
|
#BPMCHANGE 139
|
|
#SCROLL 0.99280575539
|
|
01201120,
|
|
#BPMCHANGE 137
|
|
#SCROLL 1.00729927007
|
|
10101111,
|
|
#BPMCHANGE 141
|
|
#SCROLL 0.97872340425
|
|
01101110,
|
|
#BPMCHANGE 136.5
|
|
#SCROLL 1.01098901099
|
|
10201111,
|
|
#BPMCHANGE 137.5
|
|
#SCROLL 1.00363636364
|
|
01101110,
|
|
#BPMCHANGE 139.8
|
|
#SCROLL 0.98712446351
|
|
10101111,
|
|
#BPMCHANGE 125
|
|
#SCROLL 1.104
|
|
10
|
|
#BPMCHANGE 142
|
|
#SCROLL 0.97183098591
|
|
2101
|
|
#BPMCHANGE 141
|
|
#SCROLL 0.97872340425
|
|
20,
|
|
#BPMCHANGE 139
|
|
#SCROLL 0.99280575539
|
|
10210120,
|
|
#BPMCHANGE 137
|
|
#SCROLL 1.00729927007
|
|
12012012,
|
|
#BPMCHANGE 135
|
|
#SCROLL 1.02222222222
|
|
,
|
|
#BPMCHANGE 138.5
|
|
#SCROLL 0.99638989169
|
|
1111,
|
|
#BPMCHANGE 138
|
|
#SCROLL 1
|
|
1111,
|
|
#BPMCHANGE 139
|
|
#SCROLL 0.99280575539
|
|
1111,
|
|
#BPMCHANGE 137.5
|
|
#SCROLL 1.00363636364
|
|
1111,
|
|
#BPMCHANGE 137
|
|
#SCROLL 1.00729927007
|
|
1111,
|
|
|
|
#BPMCHANGE 139.5
|
|
#SCROLL 0.98924731182
|
|
#SECTION
|
|
#BRANCHSTART p,75,90
|
|
#N
|
|
12101210,
|
|
#BPMCHANGE 138
|
|
#SCROLL 1
|
|
12101210,
|
|
#BPMCHANGE 139
|
|
#SCROLL 0.99280575539
|
|
12101210,
|
|
#BPMCHANGE 138
|
|
#SCROLL 1
|
|
12101210,
|
|
#BPMCHANGE 137.5
|
|
#SCROLL 1.00363636364
|
|
12101210,
|
|
#BPMCHANGE 137
|
|
#SCROLL 1.00729927007
|
|
12101210,
|
|
#BPMCHANGE 139
|
|
#SCROLL 0.99280575539
|
|
12101210,
|
|
12101210,
|
|
#BPMCHANGE 137
|
|
#SCROLL 1.00729927007
|
|
12101210,
|
|
12101214,
|
|
#BPMCHANGE 138
|
|
#SCROLL 1
|
|
01111104,
|
|
#BPMCHANGE 139
|
|
#SCROLL 0.99280575539
|
|
01111104,
|
|
00303306,
|
|
#BPMCHANGE 132
|
|
#SCROLL 1.04545454545
|
|
000000000000000000000008000000000000
|
|
#BPMCHANGE 145
|
|
#SCROLL 0.95172413793
|
|
000000000000,
|
|
|
|
#E
|
|
12121010,
|
|
#BPMCHANGE 138
|
|
#SCROLL 1
|
|
12121010,
|
|
#BPMCHANGE 139
|
|
#SCROLL 0.99280575539
|
|
12121010,
|
|
#BPMCHANGE 138
|
|
#SCROLL 1
|
|
12121010,
|
|
#BPMCHANGE 137.5
|
|
#SCROLL 1.00363636364
|
|
12101210,
|
|
#BPMCHANGE 137
|
|
#SCROLL 1.00729927007
|
|
12101210,
|
|
#BPMCHANGE 139
|
|
#SCROLL 0.99280575539
|
|
12121010,
|
|
12121010,
|
|
#BPMCHANGE 137
|
|
#SCROLL 1.00729927007
|
|
12101210,
|
|
12101214,
|
|
#BPMCHANGE 138
|
|
#SCROLL 1
|
|
0010101011100040,
|
|
#BPMCHANGE 139
|
|
#SCROLL 0.99280575539
|
|
0010101011100040,
|
|
00303306,
|
|
#BPMCHANGE 132
|
|
#SCROLL 1.04545454545
|
|
000000000000000000000008000000000000
|
|
#BPMCHANGE 145
|
|
#SCROLL 0.95172413793
|
|
000000000000,
|
|
|
|
#M
|
|
12121020,
|
|
#BPMCHANGE 138
|
|
#SCROLL 1
|
|
12121010,
|
|
#BPMCHANGE 139
|
|
#SCROLL 0.99280575539
|
|
12121020,
|
|
#BPMCHANGE 138
|
|
#SCROLL 1
|
|
12121010,
|
|
#BPMCHANGE 137.5
|
|
#SCROLL 1.00363636364
|
|
12101210,
|
|
#BPMCHANGE 137
|
|
#SCROLL 1.00729927007
|
|
12101210,
|
|
#BPMCHANGE 139
|
|
#SCROLL 0.99280575539
|
|
11221020,
|
|
11221010,
|
|
#BPMCHANGE 137
|
|
#SCROLL 1.00729927007
|
|
12101210,
|
|
1110100011102040,
|
|
#BPMCHANGE 138
|
|
#SCROLL 1
|
|
0011101011100040,
|
|
#BPMCHANGE 139
|
|
#SCROLL 0.99280575539
|
|
0011101011100040,
|
|
00303306,
|
|
#BPMCHANGE 132
|
|
#SCROLL 1.04545454545
|
|
000000000000000000000008000000000000
|
|
#BPMCHANGE 145
|
|
#SCROLL 0.95172413793
|
|
000000000000,
|
|
|
|
#GOGOSTART
|
|
#BPMCHANGE 138
|
|
#SCROLL 1
|
|
#SECTION
|
|
#BRANCHSTART p,75,90
|
|
#N
|
|
1010100010111000,
|
|
#BPMCHANGE 139
|
|
#SCROLL 0.99280575539
|
|
2020200020222000,
|
|
1010100010111030,
|
|
#BPMCHANGE 137
|
|
#SCROLL 1.00729927007
|
|
03040000,
|
|
10210121,
|
|
#BPMCHANGE 139
|
|
#SCROLL 0.99280575539
|
|
01202222,
|
|
#BPMCHANGE 140
|
|
#SCROLL 0.98571428571
|
|
34034043,
|
|
#BPMCHANGE 127
|
|
#SCROLL 1.08661417323
|
|
0010
|
|
#BPMCHANGE 141
|
|
#SCROLL 0.97872340425
|
|
200010111000,
|
|
#BPMCHANGE 136.5
|
|
#SCROLL 1.01098901099
|
|
1010100010111000,
|
|
#BPMCHANGE 138.5
|
|
#SCROLL 0.99638989169
|
|
2020200020222000,
|
|
#BPMCHANGE 138
|
|
#SCROLL 1
|
|
1010100010111030,
|
|
#BPMCHANGE 137.5
|
|
#SCROLL 1.00363636364
|
|
03040000,
|
|
#BPMCHANGE 140
|
|
#SCROLL 0.98571428571
|
|
10210121,
|
|
#BPMCHANGE 136
|
|
#SCROLL 1.01470588235
|
|
01202220,
|
|
#BPMCHANGE 139
|
|
#SCROLL 0.99280575539
|
|
34034046,
|
|
000000000000000000000000000000000008000000000000,
|
|
#BPMCHANGE 135.5
|
|
#SCROLL 1.0184501845
|
|
1111,
|
|
#BPMCHANGE 139
|
|
#SCROLL 0.99280575539
|
|
1110,
|
|
#BPMCHANGE 138.5
|
|
#SCROLL 0.99638989169
|
|
22022025,
|
|
#BPMCHANGE 136
|
|
#SCROLL 1.01470588235
|
|
000000000000000000000000000000000008000000000000,
|
|
|
|
#E
|
|
1011100010111000,
|
|
#BPMCHANGE 139
|
|
#SCROLL 0.99280575539
|
|
2022200020222000,
|
|
1011100010111030,
|
|
#BPMCHANGE 137
|
|
#SCROLL 1.00729927007
|
|
03040000,
|
|
11210121,
|
|
#BPMCHANGE 139
|
|
#SCROLL 0.99280575539
|
|
01202222,
|
|
#BPMCHANGE 140
|
|
#SCROLL 0.98571428571
|
|
34034043,
|
|
#BPMCHANGE 127
|
|
#SCROLL 1.08661417323
|
|
0010
|
|
#BPMCHANGE 141
|
|
#SCROLL 0.97872340425
|
|
200010111000,
|
|
#BPMCHANGE 136.5
|
|
#SCROLL 1.01098901099
|
|
1011100010111000,
|
|
#BPMCHANGE 138.5
|
|
#SCROLL 0.99638989169
|
|
2022200020222000,
|
|
#BPMCHANGE 138
|
|
#SCROLL 1
|
|
1011100010111030,
|
|
#BPMCHANGE 137.5
|
|
#SCROLL 1.00363636364
|
|
03040000,
|
|
#BPMCHANGE 140
|
|
#SCROLL 0.98571428571
|
|
11210121,
|
|
#BPMCHANGE 136
|
|
#SCROLL 1.01470588235
|
|
01202220,
|
|
#BPMCHANGE 139
|
|
#SCROLL 0.99280575539
|
|
34034036,
|
|
000000000000000000000000000000000008000000000000,
|
|
#BPMCHANGE 135.5
|
|
#SCROLL 1.0184501845
|
|
1111,
|
|
#BPMCHANGE 139
|
|
#SCROLL 0.99280575539
|
|
1110,
|
|
#BPMCHANGE 138.5
|
|
#SCROLL 0.99638989169
|
|
22022025,
|
|
#BPMCHANGE 136
|
|
#SCROLL 1.01470588235
|
|
000000000000000000000000000000000008000000000000,
|
|
|
|
#M
|
|
1011101010111000,
|
|
#BPMCHANGE 139
|
|
#SCROLL 0.99280575539
|
|
2022202020222000,
|
|
1011101010111030,
|
|
#BPMCHANGE 137
|
|
#SCROLL 1.00729927007
|
|
03040000,
|
|
11210121,
|
|
#BPMCHANGE 139
|
|
#SCROLL 0.99280575539
|
|
01202222,
|
|
#BPMCHANGE 140
|
|
#SCROLL 0.98571428571
|
|
34034043,
|
|
#BPMCHANGE 127
|
|
#SCROLL 1.08661417323
|
|
0010
|
|
#BPMCHANGE 141
|
|
#SCROLL 0.97872340425
|
|
200010111000,
|
|
#BPMCHANGE 136.5
|
|
#SCROLL 1.01098901099
|
|
1011101010111000,
|
|
#BPMCHANGE 138.5
|
|
#SCROLL 0.99638989169
|
|
2022202020222000,
|
|
#BPMCHANGE 138
|
|
#SCROLL 1
|
|
1011101010111030,
|
|
#BPMCHANGE 137.5
|
|
#SCROLL 1.00363636364
|
|
03040000,
|
|
#BPMCHANGE 140
|
|
#SCROLL 0.98571428571
|
|
11210121,
|
|
#BPMCHANGE 136
|
|
#SCROLL 1.01470588235
|
|
01202220,
|
|
#BPMCHANGE 139
|
|
#SCROLL 0.99280575539
|
|
34034046,
|
|
000000000000000000000000000000000008000000000000,
|
|
#BPMCHANGE 135.5
|
|
#SCROLL 1.0184501845
|
|
1111,
|
|
#BPMCHANGE 139
|
|
#SCROLL 0.99280575539
|
|
1110,
|
|
#BPMCHANGE 138.5
|
|
#SCROLL 0.99638989169
|
|
22022025,
|
|
#BPMCHANGE 136
|
|
#SCROLL 1.01470588235
|
|
000000000000000000000000000000000008000000000000,
|
|
|
|
#BRANCHEND
|
|
#GOGOEND
|
|
|
|
|
|
#END
|
|
|
|
|
|
COURSE:Normal
|
|
LEVEL:4
|
|
BALLOON:6
|
|
SCOREINIT:1200
|
|
SCOREDIFF:390
|
|
|
|
|
|
#START
|
|
|
|
|
|
#SCROLL 1.00729927007
|
|
100000000000000000000000100000100000000000000000,
|
|
#BPMCHANGE 139
|
|
#SCROLL 0.99280575539
|
|
100000000000200000000000100000000000000000000000,
|
|
#BPMCHANGE 137
|
|
#SCROLL 1.00729927007
|
|
100000000000000000000000100000100000000000000000,
|
|
#BPMCHANGE 141
|
|
#SCROLL 0.97872340425
|
|
100000000000100000000000100000000000000000000000,
|
|
#BPMCHANGE 136.5
|
|
#SCROLL 1.01098901099
|
|
100000000000000000000000100000100000000000000000,
|
|
#BPMCHANGE 137.5
|
|
#SCROLL 1.00363636364
|
|
100000000000200000000000100000000000000000000000,
|
|
#BPMCHANGE 139.8
|
|
#SCROLL 0.98712446351
|
|
100000000000000000000000100000100000000000000000,
|
|
#BPMCHANGE 125
|
|
#SCROLL 1.104
|
|
100000000000
|
|
#BPMCHANGE 142
|
|
#SCROLL 0.97183098591
|
|
000000100000000000000000
|
|
#BPMCHANGE 141
|
|
#SCROLL 0.97872340425
|
|
000000000000,
|
|
#BPMCHANGE 139
|
|
#SCROLL 0.99280575539
|
|
100000000000000000100000000000000000000000000000,
|
|
#BPMCHANGE 137
|
|
#SCROLL 1.00729927007
|
|
9,
|
|
#BPMCHANGE 135
|
|
#SCROLL 1.02222222222
|
|
08,
|
|
#BPMCHANGE 138.5
|
|
#SCROLL 0.99638989169
|
|
100000000000000000000000100000000000000000000000,
|
|
#BPMCHANGE 138
|
|
#SCROLL 1
|
|
100000000000000000000000100000000000000000000000,
|
|
#BPMCHANGE 139
|
|
#SCROLL 0.99280575539
|
|
100000000000000000000000100000000000000000000000,
|
|
#BPMCHANGE 137.5
|
|
#SCROLL 1.00363636364
|
|
100000000000000000000000100000000000000000000000,
|
|
#BPMCHANGE 137
|
|
#SCROLL 1.00729927007
|
|
100000000000000000000000100000000000000000000000,
|
|
#BPMCHANGE 139.5
|
|
#SCROLL 0.98924731182
|
|
100000000000100000000000100000000000000000000000,
|
|
#BPMCHANGE 138
|
|
#SCROLL 1
|
|
100000000000100000000000100000000000000000000000,
|
|
#BPMCHANGE 139
|
|
#SCROLL 0.99280575539
|
|
100000000000100000000000100000000000000000000000,
|
|
#BPMCHANGE 138
|
|
#SCROLL 1
|
|
100000000000100000000000100000000000000000000000,
|
|
#BPMCHANGE 137.5
|
|
#SCROLL 1.00363636364
|
|
100000000000200000000000100000000000000000000000,
|
|
#BPMCHANGE 137
|
|
#SCROLL 1.00729927007
|
|
100000000000200000000000100000000000000000000000,
|
|
#BPMCHANGE 139
|
|
#SCROLL 0.99280575539
|
|
100000000000200000000000100000000000200000000000,
|
|
100000000000000000000000000000000000000000000000,
|
|
#BPMCHANGE 137
|
|
#SCROLL 1.00729927007
|
|
100000000000100000000000100000000000000000000000,
|
|
100000000000100000000000100000000000000000400000,
|
|
#BPMCHANGE 138
|
|
#SCROLL 1
|
|
000000000000100000000000100000000000000000400000,
|
|
#BPMCHANGE 139
|
|
#SCROLL 0.99280575539
|
|
000000000000100000000000100000000000000000400000,
|
|
000000000000300000000000300000000000000000600000,
|
|
#BPMCHANGE 132
|
|
#SCROLL 1.04545454545
|
|
000000000000000000800000000000000000
|
|
#BPMCHANGE 145
|
|
#SCROLL 0.95172413793
|
|
000000000000,
|
|
|
|
#GOGOSTART
|
|
#BPMCHANGE 138
|
|
#SCROLL 1
|
|
100000000000100000000000100000000000100000000000,
|
|
#BPMCHANGE 139
|
|
#SCROLL 0.99280575539
|
|
100000000000000000000000000000000000000000000000,
|
|
100000000000100000000000100000000000000000300000,
|
|
#BPMCHANGE 137
|
|
#SCROLL 1.00729927007
|
|
000000000000000000300000000000000000000000000000,
|
|
100000000000200000000000100000000000200000000000,
|
|
#BPMCHANGE 139
|
|
#SCROLL 0.99280575539
|
|
100000000000200000000000100000000000000000000000,
|
|
#BPMCHANGE 140
|
|
#SCROLL 0.98571428571
|
|
300000000000000000300000000000000000300000000000,
|
|
#BPMCHANGE 127
|
|
#SCROLL 1.08661417323
|
|
000000000000
|
|
#BPMCHANGE 141
|
|
#SCROLL 0.97872340425
|
|
000000000000000000000000000000000000,
|
|
#BPMCHANGE 136.5
|
|
#SCROLL 1.01098901099
|
|
100000000000100000000000100000000000100000000000,
|
|
#BPMCHANGE 138.5
|
|
#SCROLL 0.99638989169
|
|
100000000000000000000000000000000000000000000000,
|
|
#BPMCHANGE 138
|
|
#SCROLL 1
|
|
100000000000100000000000100000000000000000300000,
|
|
#BPMCHANGE 137.5
|
|
#SCROLL 1.00363636364
|
|
000000000000000000300000000000000000000000000000,
|
|
#BPMCHANGE 140
|
|
#SCROLL 0.98571428571
|
|
100000000000200000000000100000000000200000000000,
|
|
#BPMCHANGE 136
|
|
#SCROLL 1.01470588235
|
|
100000000000200000000000100000000000000000000000,
|
|
#BPMCHANGE 139
|
|
#SCROLL 0.99280575539
|
|
300000000000000000300000000000000000600000000000,
|
|
000000000000000000000000000000800000000000000000,
|
|
#BPMCHANGE 135.5
|
|
#SCROLL 1.0184501845
|
|
100000000000000000000000100000000000000000000000,
|
|
#BPMCHANGE 139
|
|
#SCROLL 0.99280575539
|
|
100000000000100000000000100000000000000000000000,
|
|
#BPMCHANGE 138.5
|
|
#SCROLL 0.99638989169
|
|
400000000000000000400000000000000000600000000000,
|
|
#BPMCHANGE 136
|
|
#SCROLL 1.01470588235
|
|
000000000000000000000000000000800000000000000000,
|
|
|
|
#GOGOEND
|
|
|
|
|
|
#END
|
|
|
|
|
|
COURSE:Easy
|
|
LEVEL:3
|
|
BALLOON:4
|
|
SCOREINIT:1030
|
|
SCOREDIFF:420
|
|
|
|
|
|
#START
|
|
|
|
|
|
#SCROLL 1.00729927007
|
|
100000000000000000000000100000000000100000000000,
|
|
#BPMCHANGE 139
|
|
#SCROLL 0.99280575539
|
|
100000000000000000000000100000000000000000000000,
|
|
#BPMCHANGE 137
|
|
#SCROLL 1.00729927007
|
|
100000000000000000000000100000000000100000000000,
|
|
#BPMCHANGE 141
|
|
#SCROLL 0.97872340425
|
|
100000000000000000000000200000000000000000000000,
|
|
#BPMCHANGE 136.5
|
|
#SCROLL 1.01098901099
|
|
100000000000000000000000100000000000100000000000,
|
|
#BPMCHANGE 137.5
|
|
#SCROLL 1.00363636364
|
|
100000000000000000000000100000000000000000000000,
|
|
#BPMCHANGE 139.8
|
|
#SCROLL 0.98712446351
|
|
100000000000000000000000100000000000100000000000,
|
|
#BPMCHANGE 125
|
|
#SCROLL 1.104
|
|
100000000000
|
|
#BPMCHANGE 142
|
|
#SCROLL 0.97183098591
|
|
000000000000000000000000
|
|
#BPMCHANGE 141
|
|
#SCROLL 0.97872340425
|
|
000000000000,
|
|
#BPMCHANGE 139
|
|
#SCROLL 0.99280575539
|
|
100000000000000000000000000000000000000000000000,
|
|
#BPMCHANGE 137
|
|
#SCROLL 1.00729927007
|
|
9,
|
|
#BPMCHANGE 135
|
|
#SCROLL 1.02222222222
|
|
08,
|
|
#BPMCHANGE 138.5
|
|
#SCROLL 0.99638989169
|
|
100000000000000000000000100000000000000000000000,
|
|
#BPMCHANGE 138
|
|
#SCROLL 1
|
|
100000000000000000000000100000000000000000000000,
|
|
#BPMCHANGE 139
|
|
#SCROLL 0.99280575539
|
|
100000000000000000000000100000000000000000000000,
|
|
#BPMCHANGE 137.5
|
|
#SCROLL 1.00363636364
|
|
100000000000000000000000100000000000000000000000,
|
|
#BPMCHANGE 137
|
|
#SCROLL 1.00729927007
|
|
100000000000000000000000100000000000000000000000,
|
|
#BPMCHANGE 139.5
|
|
#SCROLL 0.98924731182
|
|
100000000000100000000000000000000000000000000000,
|
|
#BPMCHANGE 138
|
|
#SCROLL 1
|
|
100000000000100000000000000000000000000000000000,
|
|
#BPMCHANGE 139
|
|
#SCROLL 0.99280575539
|
|
100000000000100000000000000000000000000000000000,
|
|
#BPMCHANGE 138
|
|
#SCROLL 1
|
|
100000000000100000000000000000000000000000000000,
|
|
#BPMCHANGE 137.5
|
|
#SCROLL 1.00363636364
|
|
200000000000200000000000000000000000000000000000,
|
|
#BPMCHANGE 137
|
|
#SCROLL 1.00729927007
|
|
200000000000200000000000000000000000000000000000,
|
|
#BPMCHANGE 139
|
|
#SCROLL 0.99280575539
|
|
200000000000200000000000000000000000200000000000,
|
|
000000000000000000000000000000000000000000000000,
|
|
#BPMCHANGE 137
|
|
#SCROLL 1.00729927007
|
|
100000000000100000000000000000000000000000000000,
|
|
100000000000100000000000000000000000400000000000,
|
|
#BPMCHANGE 138
|
|
#SCROLL 1
|
|
000000000000000000000000000000000000400000000000,
|
|
#BPMCHANGE 139
|
|
#SCROLL 0.99280575539
|
|
000000000000000000000000000000000000400000000000,
|
|
000000000000300000000000000000000000600000000000,
|
|
#BPMCHANGE 132
|
|
#SCROLL 1.04545454545
|
|
000000000008000000000000000000000000
|
|
#BPMCHANGE 145
|
|
#SCROLL 0.95172413793
|
|
000000000000,
|
|
|
|
#GOGOSTART
|
|
#BPMCHANGE 138
|
|
#SCROLL 1
|
|
100000000000100000000000100000000000100000000000,
|
|
#BPMCHANGE 139
|
|
#SCROLL 0.99280575539
|
|
100000000000000000000000000000000000000000000000,
|
|
100000000000100000000000100000000000000000300000,
|
|
#BPMCHANGE 137
|
|
#SCROLL 1.00729927007
|
|
000000000000000000000000000000000000000000000000,
|
|
100000000000000000000000000000000000000000100000,
|
|
#BPMCHANGE 139
|
|
#SCROLL 0.99280575539
|
|
000000000000000000000000000000000000000000000000,
|
|
#BPMCHANGE 140
|
|
#SCROLL 0.98571428571
|
|
300000000000000000300000000000000000300000000000,
|
|
#BPMCHANGE 127
|
|
#SCROLL 1.08661417323
|
|
000000000000
|
|
#BPMCHANGE 141
|
|
#SCROLL 0.97872340425
|
|
000000000000000000000000000000000000,
|
|
#BPMCHANGE 136.5
|
|
#SCROLL 1.01098901099
|
|
100000000000100000000000100000000000100000000000,
|
|
#BPMCHANGE 138.5
|
|
#SCROLL 0.99638989169
|
|
100000000000000000000000000000000000000000000000,
|
|
#BPMCHANGE 138
|
|
#SCROLL 1
|
|
100000000000100000000000100000000000000000300000,
|
|
#BPMCHANGE 137.5
|
|
#SCROLL 1.00363636364
|
|
000000000000000000000000000000000000000000000000,
|
|
#BPMCHANGE 140
|
|
#SCROLL 0.98571428571
|
|
100000000000000000000000000000000000000000100000,
|
|
#BPMCHANGE 136
|
|
#SCROLL 1.01470588235
|
|
000000000000000000000000000000000000000000000000,
|
|
#BPMCHANGE 139
|
|
#SCROLL 0.99280575539
|
|
300000000000000000300000000000000000600000000000,
|
|
000000000000000000000000800000000000000000000000,
|
|
#BPMCHANGE 135.5
|
|
#SCROLL 1.0184501845
|
|
100000000000000000000000100000000000000000000000,
|
|
#BPMCHANGE 139
|
|
#SCROLL 0.99280575539
|
|
100000000000100000000000100000000000000000000000,
|
|
#BPMCHANGE 138.5
|
|
#SCROLL 0.99638989169
|
|
400000000000000000400000000000000000600000000000,
|
|
#BPMCHANGE 136
|
|
#SCROLL 1.01470588235
|
|
000000000000000000000000000000800000000000000000,
|
|
|
|
#GOGOEND
|
|
|
|
|
|
#END
|
|
|