Files
ESE/01 Pop/Little Apple/Little Apple.tja
T

328 lines
13 KiB
Plaintext

//TJADB Project
TITLE:Little Apple
TITLEZH:小蘋果
SUBTITLE:--Chopstick Brothers
BPM:125
WAVE:Little Apple.ogg
OFFSET:-2.171
DEMOSTART:40.571
COURSE:Oni
LEVEL:5
SCOREINIT:570
SCOREDIFF:153
#START
100000100000100000100100000000100000100000000000,
200000200000200000100000000000100000100000000000,
200000200000200000100100000000200000200000000000,
500000000000000000000000000000000008000000000000,
100000100000100000100100100000100000100000000000,
100000100000100000100100100000100000100000000000,
100000100000100000100100100000100000100000000000,
100000100100100000100100100000100000100000000000,
200000200000200000200200200000200000200000000000,
200000200000200000200200200000200000200000000000,
200000200000200000200200200000200000200000000000,
200000200200200000200200200000200000200000000000,
100000100000100000100100100000200000200000000000,
100000100000100000100100100000000000400000000000,
200000200000200000200200200000200000200000000000,
200000200000200000200200200000000000400000000000,
100000100000100000100100100000200000200000000000,
100000100000100000100100100000000000400000000000,
100000100000100000100100100000200000200000000000,
300000000000300000000000300000000000300000000000,
#GOGOSTART
100000100100100000100100100000100100100000000000,
200000200000100000100100100000000000200000000000,
100000100100100000100100100000100100100000000000,
200000200000100000100100100000000000200000100000,
100000100100100000100100100000100100100000000000,
200000200000100000100100100000000000200000100000,
100000100100100000000005000000000000000000000008,
000000000000100000100000100000100000100000000000,
100000100100100000100100100000100100100000000000,
200000200000100000100100100000000000200000000000,
100000100100100000100100100000100100100000000000,
200000200000100000100100100000000000200000100000,
100000100100100000100100100000100100100000000000,
200000200000100000100100100000000000200000100000,
100000100100100000100100100000100100100000000000,
500000000000000000000000000000000008000000000000,
#GOGOEND
100000100100100000100000100000200000200000000000,
100000100100100000100000200000200000200000000000,
100000100100100000100000100000200000200000000000,
100000100100100000100000200000200000200000000000,
#GOGOSTART
100000100100100000100100100000100100100000000000,
200000200000100000100100100000000000200000000000,
100000100100100000100100100000100100100000000000,
200000200000100000100100100000000000200000100000,
100000100100100000100100100000100100100000000000,
200000200000100000100100100000000000200000100000,
100000100100100000000005000000000000000000000008,
000000000000100000100000100000100000100000000000,
100000100100100000100100100000100100100000000000,
200000200000100000100100100000000000200000000000,
100000100100100000100100100000100100100000000000,
200000200000100000100100100000000000200000100000,
100000100100100000100100100000100100100000000000,
200000200000100000100100100000000000200000100000,
100000100100100000100100100000100100100000000000,
500000000000000000000000000000000008000000000000,
#GOGOEND
100000200200200000200200200000100000400000000000,
100000200200200000200200200000100000400000000000,
100000200200200000200200200000100000400000000000,
100000200200200000100200200000100000400000000000,
#END
COURSE:Hard
LEVEL:5
BALLOON:10,10
SCOREINIT:630
SCOREDIFF:345
#START
100000100000100000100100000000100000100000000000,
100000100000100000100000000000100000100000000000,
200000200000200000200200000000200000200000000000,
500000000000000000000000000000800000000000000000,
100000100000100000000000100000100000100000000000,
100000100000100000000000100000000000000000000000,
100000100000100000000000100000100000100000000000,
100000000000100000000000100000000000000000000000,
200000200000200000000000200000200000200000000000,
200000200000200000000000200000000000000000000000,
200000200000200000000000200000200000200000000000,
200000000000200000000000200000000000000000000000,
100000100000100000000000100000000000000000000000,
100000100000100000000000100000000000400000000000,
200000200000200000000000200000000000000000000000,
200000200000200000000000200000000000400000000000,
100000100000100000000000100000000000000000000000,
100000100000100000000000100000000000400000000000,
100000100000100000000000100000000000000000000000,
300000000000300000000000300000000000300000000000,
#GOGOSTART
100000100100100000000000100000000000100000000000,
100000100000100000100100100000000000200000000000,
100000100100100000000000100000000000100000000000,
200000200000100000100100100000000000200000100000,
100000100100100000000000100000000000100000000000,
200000200000200000200200200000000000200000100000,
100000100100100000000000500000000000000000000800,
000000000000100000100000100000100000100000000000,
100000100100100000000000100000000000100000000000,
100000100000100000100100100000000000200000000000,
100000100100100000000000100000000000100000000000,
200000200000100000100100100000000000200000100000,
100000100100100000000000100000000000100000000000,
200000200000200000200200200000000000200000100000,
100000100100100000000000100000000000100000000000,
500000000000000000000000000000000800000000000000,
#GOGOEND
100000100100100000100000100000000000200000000000,
700000000000000000000000000000800000000000000000,
100000100100100000100000100000000000200000000000,
700000000000000000000000000000800000000000000000,
#GOGOSTART
100000100100100000000000100000000000100000000000,
100000100000100000100100100000000000200000000000,
100000100100100000000000100000000000100000000000,
200000200000100000100100100000000000200000100000,
100000100100100000000000100000000000100000000000,
200000200000200000200200200000000000200000100000,
100000100100100000000000500000000000000000000800,
000000000000100000100000100000100000100000000000,
100000100100100000000000100000000000100000000000,
100000100000100000100100100000000000200000000000,
100000100100100000000000100000000000100000000000,
200000200000100000100100100000000000200000100000,
100000100100100000000000100000000000100000000000,
200000200000200000200200200000000000200000100000,
100000100100100000000000100000000000100000000000,
500000000000000000000000000000000800000000000000,
#GOGOEND
100000100100100000100100100000100000400000000000,
100000100100100000100100100000100000400000000000,
100000100100100000100100100000100000400000000000,
100000100100100000100100100100100000400000000000,
#END
COURSE:Normal
LEVEL:4
BALLOON:8,8
SCOREINIT:950
SCOREDIFF:345
#START
100000000000100000000000100000000000000000000000,
100000000000100000000000000000100000100000000000,
100000000000100000000000100000000000000000000000,
500000000000000000000000000000800000000000000000,
100000000000100000000000100000000000000000000000,
100000000000100000000000100000000000000000000000,
100000000000000000000000100000000000000000000000,
100000000000000000000000000000000000000000000000,
200000000000200000000000200000000000000000000000,
200000000000200000000000200000000000000000000000,
200000000000000000000000200000000000000000000000,
200000000000000000000000000000000000000000000000,
100000000000100000000000100000000000000000000000,
100000000000100000000000100000000000400000000000,
200000000000000000000000200000000000000000000000,
200000000000200000000000200000000000400000000000,
100000000000100000000000100000000000000000000000,
100000000000100000000000100000000000400000000000,
100000000000000000000000100000000000000000000000,
600000000000000000000000000000800000000000000000,
#GOGOSTART
100000000000100000000000100000000000000000000000,
100000100000100000000000100000000000000000000000,
100000000000100000000000100000000000000000000000,
100000100000100000000000100000000000000000000000,
100000000000100000000000100000000000000000000000,
200000200000200000000000200000000000000000000000,
100000000000100000000000100000000000000000500000,
000000000000000000000000000000800000000000000000,
100000000000100000000000100000000000000000000000,
100000100000100000000000100000000000000000000000,
100000000000100000000000100000000000000000000000,
100000100000100000000000100000000000000000000000,
100000000000100000000000100000000000000000000000,
200000200000200000000000200000000000000000000000,
100000000000100000000000100000000000000000000000,
500000000000000000000000000000800000000000000000,
#GOGOEND
100000000000100000000000100000100000100000000000,
700000000000000000000000000000800000000000000000,
100000000000100000000000100000100000100000000000,
700000000000000000000000000000800000000000000000,
#GOGOSTART
100000000000100000000000100000000000000000000000,
100000100000100000000000100000000000000000000000,
100000000000100000000000100000000000000000000000,
100000100000100000000000100000000000000000000000,
100000000000100000000000100000000000000000000000,
200000200000200000000000200000000000000000000000,
100000000000100000000000100000000000000000500000,
000000000000000000000000000000800000000000000000,
100000000000100000000000100000000000000000000000,
100000100000100000000000100000000000000000000000,
100000000000100000000000100000000000000000000000,
100000100000100000000000100000000000000000000000,
100000000000100000000000100000000000000000000000,
200000200000200000000000200000000000000000000000,
100000000000100000000000100000000000000000000000,
500000000000000000000000000000800000000000000000,
#GOGOEND
100000000000100000000000000000000000200000000000,
100000000000100000000000000000000000200000000000,
100000000000100000000000000000000000200000000000,
100000000000100000000000100000100000200000000000,
#END
COURSE:Easy
LEVEL:3
BALLOON:4,4
SCOREINIT:810
SCOREDIFF:365
#START
100000000000100000000000100000000000000000000000,
100000000000000000000000100000000000000000000000,
100000000000100000000000100000000000000000000000,
500000000000000000000000800000000000000000000000,
100000000000000000000000100000000000000000000000,
100000000000100000000000100000000000000000000000,
100000000000000000000000100000000000000000000000,
100000000000000000000000000000000000000000000000,
200000000000000000000000200000000000000000000000,
200000000000200000000000200000000000000000000000,
200000000000000000000000200000000000000000000000,
200000000000000000000000000000000000000000000000,
100000000000000000000000100000000000000000000000,
100000000000000000000000000000000000300000000000,
200000000000000000000000200000000000000000000000,
200000000000000000000000000000000000300000000000,
100000000000000000000000100000000000000000000000,
100000000000000000000000000000000000300000000000,
100000000000000000000000000000000000000000000000,
600000000000000000000000800000000000000000000000,
#GOGOSTART
100000000000100000000000100000000000000000000000,
100000000000100000000000100000000000000000000000,
100000000000000000000000100000000000000000000000,
100000000000100000000000100000000000000000000000,
100000000000000000000000100000000000000000000000,
200000000000200000000000200000000000000000000000,
100000000000000000000000100000000000000000500000,
000000000000000000000000800000000000000000000000,
100000000000100000000000100000000000000000000000,
100000000000100000000000100000000000000000000000,
100000000000000000000000100000000000000000000000,
100000000000100000000000100000000000000000000000,
100000000000000000000000100000000000000000000000,
200000000000200000000000200000000000000000000000,
100000000000000000000000100000000000000000000000,
500000000000000000000000800000000000000000000000,
#GOGOEND
100000000000100000000000100000000000000000000000,
700000000000000000000000000000800000000000000000,
100000000000100000000000100000000000000000000000,
700000000000000000000000000000800000000000000000,
#GOGOSTART
100000000000100000000000100000000000000000000000,
100000000000100000000000100000000000000000000000,
100000000000000000000000100000000000000000000000,
100000000000100000000000100000000000000000000000,
100000000000000000000000100000000000000000000000,
200000000000200000000000200000000000000000000000,
100000000000000000000000100000000000000000500000,
000000000000000000000000800000000000000000000000,
100000000000100000000000100000000000000000000000,
100000000000100000000000100000000000000000000000,
100000000000000000000000100000000000000000000000,
100000000000100000000000100000000000000000000000,
100000000000000000000000100000000000000000000000,
200000000000200000000000200000000000000000000000,
100000000000000000000000100000000000000000000000,
500000000000000000000000800000000000000000000000,
#GOGOEND
100000000000100000000000000000000000000000000000,
100000000000100000000000000000000000000000000000,
100000000000100000000000000000000000000000000000,
100000000000100000000000000000000000000000000000,
#END