Files
ESE/01 Pop/Love Letter/Love Letter.tja
T
2023-06-15 19:00:23 -05:00

289 lines
11 KiB
Plaintext

//TJADB Project
TITLE:Love Letter
TITLEJA:ラブレター
SUBTITLE:--FUNKY MONKEY BABYS/SEA BREEZE
BPM:91
WAVE:Love Letter.ogg
OFFSET:-2.999
DEMOSTART:23.429
COURSE:Oni
LEVEL:5
BALLOON:16
SCOREINIT:840
SCOREDIFF:200
#START
200000000000200000200000200000000000000000000000,
200000000000200000200000200000000000200000000000,
200000200000200000000000200000000000000000000000,
200000000000000000200000200000000000200000000000,
200000000000000000200000200000000000200000000000,
200000000000200000200000000000000000200000000000,
200000000000000000200000200000000000200000000000,
500000000000000000000000000000000008000000000000,
#GOGOSTART
100000100000200000100010100000100000200000100010,
100000100000200000100010100000100000200000100010,
100000100000200000100010100000100000200000100000,
100000100010000010000010000000000000100000100000,
100010100000200000100000100010100000200000100000,
100000000000100000100000000000000000100000000000,
100000000000100000000000100000000000100000000000,
500000000000000000000000000000000008000000000000,
#GOGOEND
000000000000000000000000000000000000000000000000,
000000000000000000000000000000000000000000000000,
200000000020200000200000200000000000200000200020,
200000000020200000200000200000000000200000200000,
200000200020000020200000200000200000200000200000,
200000000000200000200000200000000000000000000000,
200000200020200000200020200000000000200000200000,
200000200020200000200020200000000000200000200000,
200000200020000020200000200000200000200000200000,
200000200000200000200000200000000000000000000000,
100000100000200000100010100000100000200000100000,
100000100000200000100010100000100000200000000000,
100000100000200000100010100000100000200000100000,
100000100000200000000000100000000000200000000000,
100000100000200000100010100000100000200000100010,
100000100000200000100010100000100000200000100010,
100000000000100000000000100000000000100000000000,
700000000000000000000000000000000000800000000000,
#GOGOSTART
100000100000200000100010100000100000200000100010,
100000100000200000100010100000100000200000100010,
100000100000200000100010100000100000200000100000,
100000100010000010000010000000000000100000100000,
100010100000200000100000100010100000200000100000,
300000300000400000300000000000000000100010200000,
100000100000200000100010100000100000200000100000,
500000000000000000000000000000000008000000000000,
100000100000200000100010100000100000200000100010,
100000100000200000100010100000100000200000100010,
100000100000200000100010100000100000200000100000,
100000100010000010000010000000000000100000100000,
100010100000200000100000100010100000200000100000,
300000300000400000300000000000000000000000000000,
300000000000300000000000300000000000300000000000,
600000000000000000000000000000000008000000000000,
#GOGOEND
#END
COURSE:Hard
LEVEL:2
BALLOON:16
SCOREINIT:640
SCOREDIFF:170
#START
200000000000200000200000200000000000000000000000,
200000000000200000200000200000000000200000000000,
200000200000200000000000200000000000000000000000,
200000000000000000200000200000000000200000000000,
200000000000000000200000200000000000200000000000,
200000000000200000200000000000000000200000000000,
200000000000000000200000200000000000200000000000,
500000000000000000000000000000000080000000000000,
#GOGOSTART
100000000000200000000010100000100000200000100000,
100000000000200000000010100000100000200000100000,
100000100000200000000010100000100000200000100000,
100000100010000010000010000000000000000000000000,
100000000000200000100000100000100000200000000000,
100000000000200000100000000000000000100000100000,
100000000000100000000000100000000000100000000000,
500000000000000000000000000000000080000000000000,
#GOGOEND
000000000000000000000000000000000000000000000000,
000000000000000000000000000000000000000000000000,
200000000000200000200000200000000000200000200000,
200000000000200000200000200000000000200000200000,
200000200000000000200000200000000000200000200000,
200000000000200000200000200000000000000000000000,
200000200000200000200000200000000000200000200000,
200000200000200000200000200000000000200000200000,
200000200000000000200000200000000000200000200000,
200000200000200000200000200000000000000000000000,
100000100000200000000000100000100000200000000000,
100000100000200000000000100000100000200000000000,
100000100000200000000000100000100000200000000000,
100000100000200000000000100000000000200000000000,
100000100000200000100000100000000000200000100000,
100000100000200000100000100000000000200000000000,
100000000000100000000000100000000000100000000000,
700000000000000000000000000000800000000000000000,
#GOGOSTART
300000000000200000000010100000100000200000100000,
100000000000200000000010100000100000200000100000,
100000100000200000000010100000100000200000100000,
100000100010000010000010000000000000000000000000,
100000000000200000100000100000100000200000000000,
100000000000200000100000100000100000200000000000,
100000100000200000000010100000100000200000000000,
500000000000000000000000000000000080000000000000,
300000000000200000000010100000100000200000100000,
100000000000200000000010100000100000200000100000,
100000100000200000000010100000100000200000100000,
100000100010000010000010000000000000000000000000,
300000000000200000100000100000100000200000000000,
300000000000300000300000000000000000000000000000,
300000000000300000000000300000000000300000000000,
600000000000000000000000000000000080000000000000,
#GOGOEND
#END
COURSE:Normal
LEVEL:2
BALLOON:12
SCOREINIT:650
SCOREDIFF:180
#START
200000000000000000200000200000000000000000000000,
200000000000000000200000200000000000000000000000,
200000000000000000200000200000000000200000000000,
200000000000000000000000200000000000000000000000,
200000000000000000200000200000000000000000000000,
200000000000000000200000200000000000000000000000,
200000000000200000000000200000000000000000000000,
500000000000000000000000000000000080000000000000,
#GOGOSTART
100000000000100000100000200000000000100000000000,
100000000000100000100000200000000000100000000000,
100000000000100000100000200000000000100000100000,
100000000000100000100000200000000000000000000000,
100000000000200000100000100000000000200000000000,
100000000000100000100000000000000000000000000000,
100000000000100000000000100000000000100000000000,
500000000000000000000000000000000080000000000000,
#GOGOEND
000000000000000000000000000000000000000000000000,
000000000000000000000000000000000000000000000000,
200000000000200000200000200000000000000000000000,
200000000000200000200000200000000000000000000000,
200000000000200000200000200000000000200000200000,
200000000000200000000000200000000000000000000000,
200000000000200000200000200000000000000000000000,
200000000000200000200000200000000000000000000000,
200000000000200000200000200000000000200000200000,
200000000000200000000000200000000000000000000000,
100000000000200000000000100000100000200000000000,
100000000000200000000000100000000000000000000000,
100000000000200000000000100000100000200000000000,
100000000000100000000000100000000000000000000000,
100000000000200000000000100000100000200000000000,
100000000000200000000000100000100000200000000000,
100000000000100000000000100000000000100000000000,
700000000000000000000000000000800000000000000000,
#GOGOSTART
100000000000100000100000200000000000100000000000,
100000000000100000100000200000000000100000000000,
100000000000100000100000200000000000100000100000,
100000000000100000100000200000000000000000000000,
100000000000200000100000100000000000200000000000,
100000000000100000100000000000000000000000000000,
100000000000200000000000100000100000200000000000,
500000000000000000000000000000000080000000000000,
100000000000100000100000200000000000100000000000,
100000000000100000100000200000000000100000000000,
100000000000100000100000200000000000100000100000,
100000000000100000100000200000000000000000000000,
100000000000200000100000100000000000200000000000,
300000000000300000300000000000000000000000000000,
300000000000300000000000300000000000300000000000,
600000000000000000000000000000000080000000000000,
#GOGOEND
#END
COURSE:Easy
LEVEL:2
BALLOON:6
SCOREINIT:740
SCOREDIFF:210
#START
200000000000000000000000000000000000000000000000,
200000000000000000000000000000000000000000000000,
200000000000000000000000000000000000000000000000,
200000000000000000000000200000000000000000000000,
200000000000000000000000000000000000000000000000,
200000000000000000000000000000000000000000000000,
200000000000200000000000200000000000000000000000,
500000000000000000000000000080000000000000000000,
#GOGOSTART
100000000000100000000000100000000000000000000000,
100000000000100000000000100000000000000000000000,
100000000000100000000000100000000000100000000000,
100000000000000000000000100000000000000000000000,
100000000000000000000000100000000000100000000000,
100000000000100000100000000000000000000000000000,
100000000000100000000000100000000000100000000000,
500000000000000000000000000080000000000000000000,
#GOGOEND
000000000000000000000000000000000000000000000000,
000000000000000000000000000000000000000000000000,
200000000000200000000000200000000000000000000000,
200000000000200000000000200000000000000000000000,
200000000000200000000000200000000000200000000000,
200000000000000000000000200000000000000000000000,
200000000000200000000000200000000000000000000000,
200000000000200000000000200000000000000000000000,
200000000000200000000000200000000000200000000000,
200000000000000000000000200000000000000000000000,
100000000000200000000000100000000000000000000000,
100000000000200000000000100000000000000000000000,
100000000000200000000000100000000000200000000000,
100000000000100000000000100000000000000000000000,
100000000000200000000000100000000000000000000000,
100000000000200000000000100000000000000000000000,
100000000000100000000000100000000000100000000000,
700000000000000000000000000000800000000000000000,
#GOGOSTART
100000000000100000000000100000000000000000000000,
100000000000100000000000100000000000000000000000,
100000000000100000000000100000000000100000000000,
100000000000000000000000100000000000000000000000,
100000000000000000000000100000000000100000000000,
100000000000100000100000000000000000000000000000,
100000000000000000100000100000000000000000000000,
500000000000000000000000000080000000000000000000,
100000000000100000000000100000000000000000000000,
100000000000100000000000100000000000000000000000,
100000000000100000000000100000000000100000000000,
100000000000000000000000100000000000000000000000,
100000000000000000000000100000000000100000000000,
300000000000300000300000000000000000000000000000,
300000000000300000000000300000000000300000000000,
600000000000000000000000000000000080000000000000,
#GOGOEND
#END