Files
ESE/01 Pop/Matsuken Samba III/Matsuken Samba III.tja
T
2023-06-15 19:15:39 -05:00

798 lines
33 KiB
Plaintext

//TJADB Project
TITLE:Matsuken Samba Ⅲ
TITLEJA:マツケンサンバIII
SUBTITLE:--Ken Matsudaira
BPM:126.6
WAVE:Matsuken Samba III.ogg
OFFSET:-2.001
DEMOSTART:103.897
COURSE:Oni
LEVEL:8
SCOREINIT:430
SCOREDIFF:100
#START
200000200100200200100000200000200100200200100000,
100000200100200200200000200200200100000200100000,
100000100100000100100000100100100000100000000000,
100000100100000100100000100100100000100000000000,
200000200100200200100000200000200100200200100000,
100000200100200200200000200200200100000200100000,
100000100100000100100000100100100000100000000000,
100000100100000100100000100100100000100000000000,
200000200100200200100000200000200100200200100000,
100000200100200200200000200200200100000200100000,
100000100100000100100000100100100000100000000000,
100000100100000100100000100100100000100000000000,
200000200100200200100000200000200100200200100000,
100000200100200200200000200200200100000200100000,
100000100100200000200100000200100000200100100000,
200000200000200000200000200000200000200200000000,
100000000100100000100100000000200200200000200000,
100000000100100000100100000000200200100000200000,
100000100100100000100100100100200000200200100000,
100000000200000000200000100000200000200000100200,
100000000100100000100100000000200200200000200000,
100000000100100000100100000000200200100000200000,
100000100100100100200000000000200200100000200000,
000000100100200000100000200000000100000000500000,
000000000000000000000000000000000008000000000000,
400000000000300000000000000000000000000000100000,
200000200100000100100000100000200000200200100000,
100000200100000100100000100000200000200200100000,
200200200100000000000000200200200100000000200100,
000000100000100100200000200200100000200000100000,
100100200000200200100000100000000100000000500000,
000000000000000000000000000000000008000000000000,
200000200100000100100000100000200000200200100000,
100000200100000100100000100000200000200200100000,
200200200100000000000000200200200100000000200100,
000000200000100100200000200000100000000000100000,
100100200000200200200000100000100000000000500000,
000000000000000000000000000000000008000000000000,
400000000000400000000000000000000200100000100000,
100000000000100100200000200100000200100000200000,
100100200000200200100000100200100000200000000000,
100000000000100100100000100000000100200000100000,
100100000200100000100200000200200000000000000000,
100000200000100000200200000200200000200000200000,
100000200000100000200200000200200000200000000000,
100000200100100000200200000200200000200000200000,
100000200100100000200200000200200000200000000000,
100000200100100000200200000200200000200000000000,
100000200200100100100000200000000000000000000000,
300000000000000000000000300000000000000000000000,
300000000000300000300000000000300000100100000100,
200000100000100000100000200000000100000000500000,
000000000000000000000000000000000008000000000000,
300000000000300000000000300000000000300000000000,
#GOGOSTART
100000200200100000200200000200100000200000000000,
100000200200100000200200000200100000200000000000,
100100100100100000200200100100100100100000000000,
100100000100200000200200000200200000200200200000,
100000200200100000200200000200100000200000000000,
100000200200100000200200000200100000200000000000,
200200200200200000100100200200200200200000100100,
100000000000300000000000300000000000300000000000,
100000200200100000200000100000400000000000100000,
200000200200100000100000100200000200200000100000,
100000000100000000100000100000000000100000000000,
500000000000000000000008000000000000200000200200,
100000200100000200100000200000100100200000000000,
200000200200100000200100000200100000200000000000,
100000100100100000200000100100100000100000000000,
100100000100200000100100000100200000200200200000,
100000200200100000200100000200100000200000100000,
100000200200100000200100000200100000200000100000,
100000100100200000100100100000100000200000200200,
100000000000400000000000400000000000400000000000,
100000200200100000200000100000400000000000100000,
200000200200100000100000100200000200200000100000,
100000000100000000100000100000000000100000000000,
500000000000000000000000000000000008000000000000,
300000000000300000000000300000000000300000000000,
300000000000000000300000000000000000600000000000,
000000000000000000000000000000000000000000000000,
000000000000000000000000000008000000000000300000,
400000000000000000000000000000000000000000000000,
#GOGOEND
#END
COURSE:Hard
LEVEL:5
BALLOON:8,8,7,7,15
SCOREINIT:680
SCOREDIFF:120
#START
500000000000000000000000800000000000000000000000,
100000000000100000000000100000100000200000000000,
700000000000000000000000000000000000000000000000,
800000000000000000000000000000000000000000000000,
500000000000000000000000800000000000000000000000,
100000000000100000000000100000100000200000000000,
700000000000000000000000000000000000000000000000,
800000000000000000000000000000000000000000000000,
500000000000000000000000000000800000000000000000,
100000000000200000000000100000100000200000000000,
600000000000000000000000000000800000000000000000,
300000000000000000000000000000000000000000000000,
500000000000000000000000000000800000000000000000,
100000000000200000000000100000100000200000000000,
600000000000000000000000000000800000000000000000,
100000100000100000100000100000100000100100000000,
100000000100000000200200000000000000000000000000,
100000000100000000400000000000000000000000000000,
100000000000100000000000100000100000100000000000,
200000000200000000200000000000000000000000000000,
100000000100000000200200000000000000000000000000,
100000000100000000400000000000000000000000000000,
100000000000100000100000000000100000100000100000,
000000100000100000000000100000000100000000500000,
000000000000000000000000000000000800000000000000,
200000000000300000000000000000000000000000000000,
100000100000200000100100000000000000000000000000,
100000100000200000100100000000200000200000000000,
100000100000200000100100000000000000000000000000,
100000100000200000100100000000200000200000000000,
100000100000200000000000100000000100000000500000,
000000000000000000000000000000000800000000000000,
100000100000200000100100000000000000000000000000,
100000100000200000100100000000200000200000000000,
100000100000200000100100000000000000000000000000,
100000100000200000100100000000200000200000000000,
100000000000200000000000100000100000000000500000,
000000000000000000000000000800000000000000000000,
300000000000300000000000000000000000000000000000,
100000100100100000100000000000200000200000000000,
100000100100100000100000000000200000200000000000,
100000100100100000100100100000200000200000000000,
100100000200000000100100000200000000000000000000,
100000000000200000100100000100100000200000000000,
100000000000200000100100000100100000200000000000,
100000100000200000100100000100100000200000000000,
100000100000200000100100000100100000200000000000,
100000100000200000100100000200200000200000000000,
100000100000200000100100000200200000200000000000,
300000000000000000000000300000000000000000000000,
300000000000300000300000000000300000000000000000,
000000100000100000100000100000000100000000500000,
000000000000000000000000000000000800000000000000,
300000000000300000000000300000000000300000000000,
#GOGOSTART
500000000000000000000000000000000800000000000000,
600000000000000000000000000000000800000000000000,
700000000000000000000800000000000000000000000000,
000000000000000000000000000000000000000000000000,
100000100000200000100100000100100000200000000000,
100000100000200000100100000100100000200000000000,
100000100000200000100100000100100000200000100100,
100000000000300000000000300000000000300000000000,
100000000100000000200000100100200000000000000000,
100000000100000000200000100000000100000000200000,
100000000100000000200000100000000000100000000000,
300000000000000000000000000000000000000000000000,
500000000000000000000000000000000800000000000000,
600000000000000000000000000000000800000000000000,
700000000000000000000800000000000000000000000000,
200200000200000000200200000200000000000000000000,
100000100000200200000200000000000000000000000000,
100000100000200200000100000000000000000000000000,
500000000000000000000000000000000000000000000800,
000000000000300000000000300000000000300000000000,
100000000100000000200000100100200000000000000000,
100000000100000000200000100000000100000000200000,
100000000100000000100000100000000000200000000000,
500000000000000000000000000800000000000000000000,
300000000000400000000000300000000000400000000000,
300000000000000000300000000000000000700000000000,
000000000000000000000000000000000000000000000000,
000000000000000800000000000000000000000000000000,
300000000000000000000000000000000000000000000000,
#GOGOEND
#END
COURSE:Normal
LEVEL:4
STYLE:Double
BALLOON:8,8,8,8,15
SCOREINIT:630
#START P1
500000000000000000000000800000000000000000000000,
100000000000000000000000100000000000000000000000,
700000000000000000000000000000000000000000800000,
000000000000000000000000000000000000000000000000,
500000000000000000000000800000000000000000000000,
200000000000000000000000200000000000000000000000,
700000000000000000000000000000000000000000800000,
000000000000000000000000000000000000000000000000,
500000000000000000000000800000000000000000000000,
100000000000000000000000100000000000100000000000,
500000000000000000000000800000000000000000000000,
300000000000000000000000000000000000000000000000,
500000000000000000000000800000000000000000000000,
200000000000000000000000200000000000200000000000,
500000000000000000000000800000000000000000000000,
100000100000100000100000100000100000100000000000,
300000000000000000000000000000000000000000000000,
300000000000000000000000000000000000000000000000,
100000000000100000000000200000200000200000000000,
100000000100000000100000000000000000000000000000,
300000000000000000000000000000000000000000000000,
300000000000000000000000000000000000000000000000,
100000000000000000100000000000000000000000100000,
000000100000100000000000100000000000000000000000,
500000000000000000000000800000000000000000000000,
200000000000300000000000000000000000000000000000,
1001000000000000,
1212,
1001000000000000,
100000000000200000000000100000000000200000000000,
100000100000100000000000100000000000000000000000,
500000000000000000000000800000000000000000000000,
0000000020020000,
1212,
0000000020020000,
100000000000200000000000100000000000200000000000,
100000000000000000000000100000100000000000500000,
000000000000000000000000000000800000000000000000,
300000000000300000000000000000000000000000000000,
100000000000100000100000000000200000200000000000,
100000000000100000100000000000000000000000000000,
100000000000100000000000100000000000100000100000,
000000000000000000000000000000000000000000000000,
100000000100000000100000100000000000000000000000,
100000000100000000100000100000000000000000000000,
200000000200000000200000200000000000000000000000,
200000000200000000200000200000000000000000000000,
100000000100000000200000200000000000000000000000,
100000000100000000200000200000000000000000000000,
300000000000000000000000300000000000000000000000,
300000000000300000300000000000300000000000000000,
000000100000100000100000100000000000000000500000,
000000000000000000000000800000000000000000000000,
300000000000300000000000300000000000300000000000,
#GOGOSTART
500000000000000000000000800000000000000000000000,
600000000000000000000000800000000000000000000000,
700000000000000000000000000000000000000000800000,
000000000000000000000000000000000000000000000000,
100000000000000000000000000000000000100000000000,
100000000000000000000000000000000000100000000000,
100000000000000000000000100000000000000000000000,
000000000000300000000000300000000000300000000000,
100000000000100000100000100000000000000000200000,
200000000200000000200000000000000000000000000000,
100000000000100000000000100000000000100000000000,
300000000000000000000000000000000000000000000000,
500000000000000000000000800000000000000000000000,
600000000000000000000000800000000000000000000000,
700000000000000000000000000000000000000000800000,
000000000000000000000000000000000000100000000000,
100000000000000000000000000000000000100000000000,
100000000000000000000000000000000000100000000000,
100000000000000000000000100000000000000000000000,
000000000000300000000000300000000000300000000000,
100000000000100000100000100000000000000000200000,
200000000200000000200000000000000000000000000000,
100000000000100000000000100000000000100000000000,
300000000000000000000000000000000000000000000000,
300000000000300000000000300000000000300000000000,
300000000000000000300000000000000000700000000000,
000000000000000000000000000000000000000000000000,
000000000000000000800000000000000000000000000000,
300000000000000000000000000000000000000000000000,
#GOGOEND
#END
#START P2
500000000000000000000000800000000000000000000000,
100000000000000000000000100000000000000000000000,
700000000000000000000000000000000000000000800000,
000000000000000000000000000000000000000000000000,
500000000000000000000000800000000000000000000000,
200000000000000000000000200000000000000000000000,
700000000000000000000000000000000000000000800000,
000000000000000000000000000000000000000000000000,
500000000000000000000000800000000000000000000000,
100000000000000000000000100000000000100000000000,
500000000000000000000000800000000000000000000000,
300000000000000000000000000000000000000000000000,
500000000000000000000000800000000000000000000000,
200000000000000000000000200000000000200000000000,
500000000000000000000000800000000000000000000000,
100000100000100000100000100000100000100000000000,
300000000000000000000000000000000000000000000000,
300000000000000000000000000000000000000000000000,
100000000000100000000000200000200000200000000000,
100000000100000000100000000000000000000000000000,
300000000000000000000000000000000000000000000000,
300000000000000000000000000000000000000000000000,
100000000000000000100000000000000000000000100000,
000000100000100000000000100000000000000000000000,
500000000000000000000000800000000000000000000000,
200000000000300000000000000000000000000000000000,
0000000020020000,
1212,
0000000020020000,
100000000000200000000000100000000000200000000000,
100000100000100000000000100000000000000000000000,
500000000000000000000000800000000000000000000000,
1001000000000000,
1212,
1001000000000000,
100000000000200000000000100000000000200000000000,
100000000000000000000000100000100000000000500000,
000000000000000000000000000000800000000000000000,
300000000000300000000000000000000000000000000000,
100000000000100000100000000000200000200000000000,
100000000000100000100000000000000000000000000000,
100000000000100000000000100000000000100000100000,
000000000000000000000000000000000000000000000000,
100000000100000000100000100000000000000000000000,
100000000100000000100000100000000000000000000000,
200000000200000000200000200000000000000000000000,
200000000200000000200000200000000000000000000000,
100000000100000000200000200000000000000000000000,
100000000100000000200000200000000000000000000000,
300000000000000000000000300000000000000000000000,
300000000000300000300000000000300000000000000000,
000000100000100000100000100000000000000000500000,
000000000000000000000000800000000000000000000000,
300000000000300000000000300000000000300000000000,
#GOGOSTART
500000000000000000000000800000000000000000000000,
600000000000000000000000800000000000000000000000,
700000000000000000000000000000000000000000800000,
000000000000000000000000000000000000000000000000,
100000000000000000000000000000000000100000000000,
100000000000000000000000000000000000100000000000,
100000000000000000000000100000000000000000000000,
000000000000300000000000300000000000300000000000,
100000000000100000100000100000000000000000200000,
200000000200000000200000000000000000000000000000,
100000000000100000000000100000000000100000000000,
300000000000000000000000000000000000000000000000,
500000000000000000000000800000000000000000000000,
600000000000000000000000800000000000000000000000,
700000000000000000000000000000000000000000800000,
000000000000000000000000000000000000100000000000,
100000000000000000000000000000000000100000000000,
100000000000000000000000000000000000100000000000,
100000000000000000000000100000000000000000000000,
000000000000300000000000300000000000300000000000,
100000000000100000100000100000000000000000200000,
200000000200000000200000000000000000000000000000,
100000000000100000000000100000000000100000000000,
300000000000000000000000000000000000000000000000,
300000000000300000000000300000000000300000000000,
300000000000000000300000000000000000700000000000,
000000000000000000000000000000000000000000000000,
000000000000000000800000000000000000000000000000,
300000000000000000000000000000000000000000000000,
#GOGOEND
#END
STYLE:Single
BALLOON:8,8,8,8,15
SCOREINIT:590
SCOREDIFF:180
#START
500000000000000000000000800000000000000000000000,
100000000000000000000000100000000000000000000000,
700000000000000000000000000000000000000000800000,
000000000000000000000000000000000000000000000000,
500000000000000000000000800000000000000000000000,
200000000000000000000000200000000000000000000000,
700000000000000000000000000000000000000000800000,
000000000000000000000000000000000000000000000000,
500000000000000000000000800000000000000000000000,
100000000000000000000000100000000000100000000000,
500000000000000000000000800000000000000000000000,
300000000000000000000000000000000000000000000000,
500000000000000000000000800000000000000000000000,
200000000000000000000000200000000000200000000000,
500000000000000000000000800000000000000000000000,
100000100000100000100000100000100000100000000000,
300000000000000000000000000000000000000000000000,
300000000000000000000000000000000000000000000000,
100000000000100000000000200000200000200000000000,
100000000100000000100000000000000000000000000000,
300000000000000000000000000000000000000000000000,
300000000000000000000000000000000000000000000000,
100000000000000000100000000000000000000000100000,
000000100000100000000000100000000000000000000000,
500000000000000000000000800000000000000000000000,
200000000000300000000000000000000000000000000000,
100000000100000000000000000000000000000000000000,
100000000000200000000000100000000000200000000000,
100000000100000000000000000000000000000000000000,
100000000000200000000000100000000000200000000000,
100000100000100000000000100000000000000000000000,
500000000000000000000000800000000000000000000000,
100000000100000000000000200000000200000000000000,
100000000000200000000000100000000000200000000000,
100000000100000000000000200000000200000000000000,
100000000000200000000000100000000000200000000000,
100000000000000000000000100000100000000000500000,
000000000000000000000000000000800000000000000000,
300000000000300000000000000000000000000000000000,
100000000000100000100000000000200000200000000000,
100000000000100000100000000000000000000000000000,
100000000000100000000000100000000000100000100000,
000000000000000000000000000000000000000000000000,
100000000100000000100000100000000000000000000000,
100000000100000000100000100000000000000000000000,
200000000200000000200000200000000000000000000000,
200000000200000000200000200000000000000000000000,
100000000100000000200000200000000000000000000000,
100000000100000000200000200000000000000000000000,
300000000000000000000000300000000000000000000000,
300000000000300000300000000000300000000000000000,
000000100000100000100000100000000000000000500000,
000000000000000000000000800000000000000000000000,
300000000000300000000000300000000000300000000000,
#GOGOSTART
500000000000000000000000800000000000000000000000,
600000000000000000000000800000000000000000000000,
700000000000000000000000000000000000000000800000,
000000000000000000000000000000000000000000000000,
100000000000000000000000000000000000100000000000,
100000000000000000000000000000000000100000000000,
100000000000000000000000100000000000000000000000,
000000000000300000000000300000000000300000000000,
100000000000100000100000100000000000000000200000,
200000000200000000200000000000000000000000000000,
100000000000100000000000100000000000100000000000,
300000000000000000000000000000000000000000000000,
500000000000000000000000800000000000000000000000,
600000000000000000000000800000000000000000000000,
700000000000000000000000000000000000000000800000,
000000000000000000000000000000000000100000000000,
100000000000000000000000000000000000100000000000,
100000000000000000000000000000000000100000000000,
100000000000000000000000100000000000000000000000,
000000000000300000000000300000000000300000000000,
100000000000100000100000100000000000000000200000,
200000000200000000200000000000000000000000000000,
100000000000100000000000100000000000100000000000,
300000000000000000000000000000000000000000000000,
300000000000300000000000300000000000300000000000,
300000000000000000300000000000000000700000000000,
000000000000000000000000000000000000000000000000,
000000000000000000800000000000000000000000000000,
300000000000000000000000000000000000000000000000,
#GOGOEND
#END
COURSE:Easy
LEVEL:3
STYLE:Double
BALLOON:7,7,10
SCOREINIT:380
SCOREDIFF:150
#START P1
500000000000000000000000800000000000000000000000,
100000000000000000000000100000000000000000000000,
300000000000000000000000000000000000000000000000,
000000000000000000000000000000000000000000000000,
500000000000000000000000800000000000000000000000,
200000000000000000000000200000000000000000000000,
300000000000000000000000000000000000000000000000,
000000000000000000000000000000000000000000000000,
500000000000000000000000800000000000000000000000,
100000000000000000000000100000000000100000000000,
500000000000000000000000800000000000000000000000,
300000000000000000000000000000000000000000000000,
500000000000000000000000800000000000000000000000,
200000000000000000000000200000000000000000000000,
500000000000000000000000000000000000000000000000,
000000000000000000800000000000000000000000000000,
300000000000000000000000000000000000000000000000,
300000000000000000000000000000000000000000000000,
100000000000100000000000100000000000000000000000,
200000000000000000000000200000000000000000000000,
300000000000000000000000000000000000000000000000,
300000000000000000000000000000000000000000000000,
100000000000000000000000100000000000000000000000,
100000000000100000000000100000000000000000000000,
500000000000000000000000800000000000000000000000,
300000000000300000000000000000000000000000000000,
1,
22,
1,
200000000000000000000000200000000000000000000000,
100000000000100000000000100000000000000000000000,
500000000000000000000000800000000000000000000000,
01,
22,
01,
200000000000000000000000200000000000000000000000,
100000000000100000000000100000000000000000000000,
500000000000000000000000800000000000000000000000,
300000000000300000000000000000000000000000000000,
100000000000100000000000000000000000000000000000,
100000000000100000000000000000000000000000000000,
100000000000100000000000100000000000000000000000,
200000000000000000000000000000000000000000000000,
100000000000000000000000100000000000000000000000,
200000000000000000000000200000000000000000000000,
100000000000000000000000100000000000000000000000,
200000000000000000000000200000000000000000000000,
100000000000100000000000100000000000000000000000,
200000000000200000000000200000000000000000000000,
300000000000000000000000300000000000000000000000,
300000000000600000000000000000800000000000000000,
100000000000100000000000100000000000000000000000,
500000000000000000000000800000000000000000000000,
300000000000300000000000300000000000300000000000,
#GOGOSTART
500000000000000000000000800000000000000000000000,
500000000000000000000000800000000000000000000000,
700000000000000000000000000000000000000000800000,
000000000000000000000000000000000000000000000000,
100000000000000000000000000000000000100000000000,
100000000000000000000000000000000000100000000000,
100000000000000000000000100000000000000000000000,
000000000000300000000000300000000000300000000000,
100000000000100000000000100000000000000000000000,
200000000000200000000000200000000000000000000000,
100000000000100000000000100000000000000000000000,
300000000000000000000000000000000000000000000000,
500000000000000000000000800000000000000000000000,
500000000000000000000000800000000000000000000000,
700000000000000000000000000000000000000000800000,
000000000000000000000000000000000000100000000000,
100000000000000000000000000000000000100000000000,
100000000000000000000000000000000000100000000000,
100000000000000000000000100000000000000000000000,
000000000000300000000000300000000000300000000000,
100000000000100000000000100000000000000000000000,
200000000000200000000000200000000000000000000000,
100000000000100000000000100000000000100000000000,
500000000000000000000000000000800000000000000000,
300000000000300000000000300000000000300000000000,
300000000000000000300000000000000000700000000000,
000000000000000000000000000000000000000000800000,
000000000000000000000000000000000000000000000000,
300000000000000000000000000000000000000000000000,
#GOGOEND
#END
#START P2
500000000000000000000000800000000000000000000000,
100000000000000000000000100000000000000000000000,
300000000000000000000000000000000000000000000000,
000000000000000000000000000000000000000000000000,
500000000000000000000000800000000000000000000000,
200000000000000000000000200000000000000000000000,
300000000000000000000000000000000000000000000000,
000000000000000000000000000000000000000000000000,
500000000000000000000000800000000000000000000000,
100000000000000000000000100000000000100000000000,
500000000000000000000000800000000000000000000000,
300000000000000000000000000000000000000000000000,
500000000000000000000000800000000000000000000000,
200000000000000000000000200000000000000000000000,
500000000000000000000000000000000000000000000000,
000000000000000000800000000000000000000000000000,
300000000000000000000000000000000000000000000000,
300000000000000000000000000000000000000000000000,
100000000000100000000000100000000000000000000000,
200000000000000000000000200000000000000000000000,
300000000000000000000000000000000000000000000000,
300000000000000000000000000000000000000000000000,
100000000000000000000000100000000000000000000000,
100000000000100000000000100000000000000000000000,
500000000000000000000000800000000000000000000000,
300000000000300000000000000000000000000000000000,
01,
22,
01,
200000000000000000000000200000000000000000000000,
100000000000100000000000100000000000000000000000,
500000000000000000000000800000000000000000000000,
1,
22,
1,
200000000000000000000000200000000000000000000000,
100000000000100000000000100000000000000000000000,
500000000000000000000000800000000000000000000000,
300000000000300000000000000000000000000000000000,
100000000000100000000000000000000000000000000000,
100000000000100000000000000000000000000000000000,
100000000000100000000000100000000000000000000000,
200000000000000000000000000000000000000000000000,
100000000000000000000000100000000000000000000000,
200000000000000000000000200000000000000000000000,
100000000000000000000000100000000000000000000000,
200000000000000000000000200000000000000000000000,
100000000000100000000000100000000000000000000000,
200000000000200000000000200000000000000000000000,
300000000000000000000000300000000000000000000000,
300000000000600000000000000000800000000000000000,
100000000000100000000000100000000000000000000000,
500000000000000000000000800000000000000000000000,
300000000000300000000000300000000000300000000000,
#GOGOSTART
500000000000000000000000800000000000000000000000,
500000000000000000000000800000000000000000000000,
700000000000000000000000000000000000000000800000,
000000000000000000000000000000000000000000000000,
100000000000000000000000000000000000100000000000,
100000000000000000000000000000000000100000000000,
100000000000000000000000100000000000000000000000,
000000000000300000000000300000000000300000000000,
100000000000100000000000100000000000000000000000,
200000000000200000000000200000000000000000000000,
100000000000100000000000100000000000000000000000,
300000000000000000000000000000000000000000000000,
500000000000000000000000800000000000000000000000,
500000000000000000000000800000000000000000000000,
700000000000000000000000000000000000000000800000,
000000000000000000000000000000000000100000000000,
100000000000000000000000000000000000100000000000,
100000000000000000000000000000000000100000000000,
100000000000000000000000100000000000000000000000,
000000000000300000000000300000000000300000000000,
100000000000100000000000100000000000000000000000,
200000000000200000000000200000000000000000000000,
100000000000100000000000100000000000100000000000,
500000000000000000000000000000800000000000000000,
300000000000300000000000300000000000300000000000,
300000000000000000300000000000000000700000000000,
000000000000000000000000000000000000000000800000,
000000000000000000000000000000000000000000000000,
300000000000000000000000000000000000000000000000,
#GOGOEND
#END
STYLE:Single
BALLOON:7,7,10
SCOREINIT:380
SCOREDIFF:150
#START
500000000000000000000000800000000000000000000000,
100000000000000000000000100000000000000000000000,
300000000000000000000000000000000000000000000000,
000000000000000000000000000000000000000000000000,
500000000000000000000000800000000000000000000000,
200000000000000000000000200000000000000000000000,
300000000000000000000000000000000000000000000000,
000000000000000000000000000000000000000000000000,
500000000000000000000000800000000000000000000000,
100000000000000000000000100000000000100000000000,
500000000000000000000000800000000000000000000000,
300000000000000000000000000000000000000000000000,
500000000000000000000000800000000000000000000000,
200000000000000000000000200000000000000000000000,
500000000000000000000000000000000000000000000000,
000000000000000000800000000000000000000000000000,
300000000000000000000000000000000000000000000000,
300000000000000000000000000000000000000000000000,
100000000000100000000000100000000000000000000000,
200000000000000000000000200000000000000000000000,
300000000000000000000000000000000000000000000000,
300000000000000000000000000000000000000000000000,
100000000000000000000000100000000000000000000000,
100000000000100000000000100000000000000000000000,
500000000000000000000000800000000000000000000000,
300000000000300000000000000000000000000000000000,
100000000000000000000000000000000000000000000000,
200000000000000000000000200000000000000000000000,
100000000000000000000000000000000000000000000000,
200000000000000000000000200000000000000000000000,
100000000000100000000000100000000000000000000000,
500000000000000000000000800000000000000000000000,
100000000000000000000000000000000000000000000000,
200000000000000000000000200000000000000000000000,
100000000000000000000000000000000000000000000000,
200000000000000000000000200000000000000000000000,
100000000000100000000000100000000000000000000000,
500000000000000000000000800000000000000000000000,
300000000000300000000000000000000000000000000000,
100000000000100000000000000000000000000000000000,
100000000000100000000000000000000000000000000000,
100000000000100000000000100000000000000000000000,
200000000000000000000000000000000000000000000000,
100000000000000000000000100000000000000000000000,
200000000000000000000000200000000000000000000000,
100000000000000000000000100000000000000000000000,
200000000000000000000000200000000000000000000000,
100000000000100000000000100000000000000000000000,
200000000000200000000000200000000000000000000000,
300000000000000000000000300000000000000000000000,
300000000000600000000000000000800000000000000000,
100000000000100000000000100000000000000000000000,
500000000000000000000000800000000000000000000000,
300000000000300000000000300000000000300000000000,
#GOGOSTART
500000000000000000000000800000000000000000000000,
500000000000000000000000800000000000000000000000,
700000000000000000000000000000000000000000800000,
000000000000000000000000000000000000000000000000,
100000000000000000000000000000000000100000000000,
100000000000000000000000000000000000100000000000,
100000000000000000000000100000000000000000000000,
000000000000300000000000300000000000300000000000,
100000000000100000000000100000000000000000000000,
200000000000200000000000200000000000000000000000,
100000000000100000000000100000000000000000000000,
300000000000000000000000000000000000000000000000,
500000000000000000000000800000000000000000000000,
500000000000000000000000800000000000000000000000,
700000000000000000000000000000000000000000800000,
000000000000000000000000000000000000100000000000,
100000000000000000000000000000000000100000000000,
100000000000000000000000000000000000100000000000,
100000000000000000000000100000000000000000000000,
000000000000300000000000300000000000300000000000,
100000000000100000000000100000000000000000000000,
200000000000200000000000200000000000000000000000,
100000000000100000000000100000000000100000000000,
500000000000000000000000000000800000000000000000,
300000000000300000000000300000000000300000000000,
300000000000000000300000000000000000700000000000,
000000000000000000000000000000000000000000800000,
000000000000000000000000000000000000000000000000,
300000000000000000000000000000000000000000000000,
#GOGOEND
#END