Files
ESE/01 Pop/Mei Hao Shi Guang/Mei Hao Shi Guang.tja
T

407 lines
11 KiB
Plaintext

//TJADB Project
TITLE:Mei Hao Shi Guang
TITLEZH:美好時光
SUBTITLE:--Mitsuyoshi & Takashi Aki
BPM:95.9
WAVE:Mei Hao Shi Guang.ogg
OFFSET:-7.668
DEMOSTART:60.154
COURSE:Oni
LEVEL:7
SCOREINIT:900
SCOREDIFF:230
#START
000000200000100000000000500000000000000008000000,
#BPMCHANGE 96
100000000000200000000200100100100000200000100000,
100000100000200000000200100100100000200000000000,
100000000000200000000200100100100000200000100000,
#BPMCHANGE 95.73
100000100000200000000200100100100100200100000000,
#BPMCHANGE 96.37
100000100000200000000000100000100000200000000000,
#BPMCHANGE 95.7
100000100000200000100200100000100000200000000000,
#BPMCHANGE 96.37
100000100000200000000000100000100000200000100100,
#BPMCHANGE 95.93
100000100000200000100200100000000000200200100000,
#BPMCHANGE 95.83
100000100000200000100200100000100100200000100000,
#BPMCHANGE 96.25
100000100000200000100200100000100100200000000000,
#BPMCHANGE 96.04
100000100000200000100200100000100100200000000000,
#BPMCHANGE 95.54
100000100000200000100200100000100100200000000000,
#BPMCHANGE 96.2
100000100000200000000200100100100000200000100000,
#BPMCHANGE 95.93
100000100000200000000200100100100000200000000000,
#BPMCHANGE 96.04
100000100000200000000200100100100000200000100000,
#BPMCHANGE 95.7
100000100000200000000200100100100000200000100100,
#BPMCHANGE 96.32
100000000000200000000200100000100000200000100000,
#BPMCHANGE 96.2
100000000000200000000200100000100000200000000000,
#BPMCHANGE 95.81
100000000000200000000200100000100000200000100000,
#BPMCHANGE 96.19
000000100000200000100000100000200000200200100000,
#GOGOSTART
#BPMCHANGE 96
100100200200200000100200000200100100200000000000,
100100200200200000100000200000100100200000000000,
100100200200200000100200000200100100200000000000,
100100200200200000100000200100100100200000100000,
100000000000200000000100100000100000200000100000,
100000000000200000000100100000100000200000000000,
100000000000200000000100100000100000200000100000,
100000000000200000100000100200100100200000000000,
100100200200200000100200000200100100200000000000,
100100200200200000100000200000100100200000000000,
100100200200200000100200000200100100200000000000,
#BPMCHANGE 96.3
100100200200200000100000200100100100200000100000,
#BPMCHANGE 96
100000000000200000000100100000100000200000100000,
#BPMCHANGE 95.62
100000000000200000000100100000100000200000100000,
#BPMCHANGE 95.7
300000000000000000000000400000000000000000000000,
#BPMCHANGE 95.15
100000000000100000000000500000000000000000000008,
#GOGOEND
#BPMCHANGE 96.82
000000000000200000000000500000000000000000000000,
#BPMCHANGE 96.26
000000000000000000000008000000000000000000000000,
#BPMCHANGE 92.39
#SCROLL 1.04
200000000000200000200000200000000000200000000000,
#MEASURE 3/4
#BPMCHANGE 77.86
#SCROLL 1.23
200000200000100000200000
#BPMCHANGE 69.14
#SCROLL 1.39
200000200000,
#MEASURE 1/4
#BPMCHANGE 30.22
#SCROLL 3.18
100200000000,
#MEASURE 4/4
#BPMCHANGE 68
#SCROLL 1.41
400000000000000000000000000000000000000000000000,
#END
COURSE:Hard
LEVEL:6
#START
000000200000100000000000100100100000100000000000,
#BPMCHANGE 96
100000000000200000000000100000100000200000000000,
100000000000200000000000100000100000200000000000,
100000000000200000000000100000100000200000000000,
#BPMCHANGE 95.73
100000000000200000000000100000000000000000000000,
#BPMCHANGE 96.37
100000000000200000000000000000000000200000000000,
#BPMCHANGE 95.7
100000000000200000000000000000100000200000000000,
#BPMCHANGE 96.37
100000000000200000000000000000000000200000000000,
#BPMCHANGE 95.93
100000000000200000000000100200000000100100100000,
#BPMCHANGE 95.83
100000100000200000000000100000100000200000100000,
#BPMCHANGE 96.25
100000100000200000000000100000100000200000000000,
#BPMCHANGE 96.04
100000100000200000000000100000100000200000100000,
#BPMCHANGE 95.54
100000100000200000000000100000100000200000000000,
#BPMCHANGE 96.2
100000000000200000000100100000100000200000000000,
#BPMCHANGE 95.93
100000000000200000000100100000100000200000000000,
#BPMCHANGE 96.04
100000000000200000000100100000100000200000000000,
#BPMCHANGE 95.7
100000000000200000000100100000100000200000100000,
#BPMCHANGE 96.32
100000000000200000000100100000100000200000000000,
#BPMCHANGE 96.2
100000000000200000000100100000100000200000000000,
#BPMCHANGE 95.81
100000100000200000000100100000100000200000000000,
#BPMCHANGE 96.19
100000100000100100000000100000000000300000000000,
#GOGOSTART
#BPMCHANGE 96
100000100000200000100100000100100000200000000000,
100000100000200000000000100000100000200000000000,
100000100000200000100100000100100000200000000000,
100000100000200000000000100000100000200000100000,
100000000000200000000100100000100000200000100000,
000000100000200000000100100000100000200000100000,
100000000000200000000100100000100000200000100000,
100000100000200000100000100100100000200000000000,
100000100000200000100100000100100000200000000000,
100000100000200000000000100100100000200000000000,
100000100000200000100100000100100000200000000000,
#BPMCHANGE 96.3
100000100000200000000000100100100000200000000000,
#BPMCHANGE 96
100000000000200000000100100000100000200000100000,
#BPMCHANGE 95.62
000000100000200000000100100000100000200000000000,
#BPMCHANGE 95.7
300000000000000000000000300000000000000000000000,
#BPMCHANGE 95.15
300000000000300000000000600000000000000000008000,
#GOGOEND
#BPMCHANGE 96.82
000000000000200000000000500000000000000000000000,
#BPMCHANGE 96.26
000000000000000000008000000000000000000000000000,
#BPMCHANGE 92.39
#SCROLL 1.04
200000000000000000000000200000000000000000000000,
#MEASURE 3/4
#BPMCHANGE 77.86
#SCROLL 1.23
20
#BPMCHANGE 69.14
#SCROLL 1.39
0,
#MEASURE 1/4
#BPMCHANGE 30.22
#SCROLL 3.18
,
#MEASURE 4/4
#BPMCHANGE 68
#SCROLL 1.41
2,
#END
COURSE:Normal
LEVEL:3
#START
000000000000000000000000000000000000000000000000,
#BPMCHANGE 96
100000000000000000000000100000000000100000000000,
100000000000000000000000100000100000100000000000,
100000000000000000000000100000000000100000000000,
#BPMCHANGE 95.73
100000000000000000000000100000100000100000000000,
#BPMCHANGE 96.37
100000000000000000000000200000000000000000000000,
#BPMCHANGE 95.7
100000000000100000000000100000000000000000000000,
#BPMCHANGE 96.37
100000000000000000000000200000000000000000000000,
#BPMCHANGE 95.93
100000000000100000100000100000000000000000000000,
#BPMCHANGE 95.83
100000000000100000000000100000000000000000000000,
#BPMCHANGE 96.25
100000000000000000000000200000000000000000000000,
#BPMCHANGE 96.04
100000000000000000000000100000000000100000000000,
#BPMCHANGE 95.54
100000000000000000000000200000000000000000000000,
#BPMCHANGE 96.2
100000000000000000000000200000000000000000000000,
#BPMCHANGE 95.93
100000000000100000000000100000000000000000000000,
#BPMCHANGE 96.04
100000000000000000000000200000000000000000000000,
#BPMCHANGE 95.7
100000000000100000100000100000000000000000000000,
#BPMCHANGE 96.32
100000000000100000000000100000000000000000000000,
#BPMCHANGE 96.2
100000000000000000000000200000000000000000000000,
#BPMCHANGE 95.81
100000000000100000000000100000000000000000000000,
#BPMCHANGE 96.19
300000000000000000000000000000000000000000000000,
#GOGOSTART
#BPMCHANGE 96
100000000000100000000000100000000000100000000000,
100000000000000000000000100000100000100000000000,
100000000000100000000000100000000000100000000000,
100000000000000000000000100000100000100000000000,
100000000000000000000000200000200000200000000000,
100000000000000000000000200000200000200000000000,
100000000000000000000000100000000000100000000000,
500000000000000000000000000800000000000000000000,
100000000000100000000000100000000000100000000000,
100000000000000000000000100000100000100000000000,
100000000000100000000000100000000000100000000000,
#BPMCHANGE 96.3
100000000000000000000000100000100000100000000000,
#BPMCHANGE 96
100000000000000000000000200000200000200000000000,
#BPMCHANGE 95.62
100000000000000000000000200000200000200000000000,
#BPMCHANGE 95.7
300000000000000000000000300000000000000000000000,
#BPMCHANGE 95.15
300000000000000000000000600000000000000000008000,
#GOGOEND
#BPMCHANGE 96.82
000000000000000000000000500000000000000000000000,
#BPMCHANGE 96.26
000000000000000000008000000000000000000000000000,
#BPMCHANGE 92.39
#SCROLL 1.04
200000000000000000000000200000000000000000000000,
#MEASURE 3/4
#BPMCHANGE 77.86
#SCROLL 1.23
20
#BPMCHANGE 69.14
#SCROLL 1.39
0,
#MEASURE 1/4
#BPMCHANGE 30.22
#SCROLL 3.18
,
#MEASURE 4/4
#BPMCHANGE 68
#SCROLL 1.41
4,
#END
COURSE:Easy
LEVEL:2
#START
000000000000000000000000000000000000000000000000,
#BPMCHANGE 96
100000000000000000000000100000000000100000000000,
100000000000000000000000100000000000000000000000,
100000000000000000000000100000000000100000000000,
#BPMCHANGE 95.73
100000000000000000000000100000000000000000000000,
#BPMCHANGE 96.37
100000000000000000000000000000000000000000000000,
#BPMCHANGE 95.7
100000000000000000000000100000000000000000000000,
#BPMCHANGE 96.37
100000000000000000000000000000000000000000000000,
#BPMCHANGE 95.93
100000000000000000000000000000000000000000000000,
#BPMCHANGE 95.83
100000000000000000000000100000000000000000000000,
#BPMCHANGE 96.25
100000000000000000000000000000000000000000000000,
#BPMCHANGE 96.04
100000000000000000000000100000000000000000000000,
#BPMCHANGE 95.54
100000000000000000000000000000000000000000000000,
#BPMCHANGE 96.2
100000000000000000000000100000000000000000000000,
#BPMCHANGE 95.93
100000000000100000000000100000000000000000000000,
#BPMCHANGE 96.04
100000000000000000000000100000000000000000000000,
#BPMCHANGE 95.7
100000000000100000000000100000000000000000000000,
#BPMCHANGE 96.32
100000000000000000000000100000000000000000000000,
#BPMCHANGE 96.2
100000000000000000000000200000000000000000000000,
#BPMCHANGE 95.81
100000000000000000000000100000000000000000000000,
#BPMCHANGE 96.19
300000000000000000000000000000000000000000000000,
#GOGOSTART
#BPMCHANGE 96
100000000000100000000000100000000000000000000000,
100000000000100000000000100000000000000000000000,
100000000000100000000000100000000000000000000000,
100000000000100000000000100000000000000000000000,
100000000000000000000000100000000000000000000000,
100000000000000000000000000000000000000000000000,
200000000000000000000000200000000000000000000000,
500000000000000000000000000800000000000000000000,
100000000000100000000000100000000000000000000000,
100000000000100000000000100000000000000000000000,
100000000000100000000000100000000000000000000000,
#BPMCHANGE 96.3
100000000000100000000000100000000000000000000000,
#BPMCHANGE 96
100000000000000000000000100000000000000000000000,
#BPMCHANGE 95.62
200000000000000000000000200000000000000000000000,
#BPMCHANGE 95.7
300000000000000000000000300000000000000000000000,
#BPMCHANGE 95.15
300000000000000000000000600000000000000000008000,
#GOGOEND
#BPMCHANGE 96.82
000000000000000000000000500000000000000000000000,
#BPMCHANGE 96.26
000000000000000000008000000000000000000000000000,
#BPMCHANGE 92.39
#SCROLL 1.04
200000000000000000000000200000000000000000000000,
#MEASURE 3/4
#BPMCHANGE 77.86
#SCROLL 1.23
20
#BPMCHANGE 69.14
#SCROLL 1.39
0,
#MEASURE 1/4
#BPMCHANGE 30.22
#SCROLL 3.18
,
#MEASURE 4/4
#BPMCHANGE 68
#SCROLL 1.41
4,
#END