Files
ESE/01 Pop/Mikan no Uta/Mikan no Uta.tja
T
2023-06-15 19:15:39 -05:00

305 lines
14 KiB
Plaintext

//TJADB Project
TITLE:Mikan no Uta
TITLEJA:みかんのうた
SUBTITLE:--SEX MACHINEGUNS
BPM:286
WAVE:Mikan no Uta.ogg
OFFSET:-1.943
DEMOSTART:47.257
COURSE:Oni
LEVEL:8
SCOREINIT:740
SCOREDIFF:170
#START
200000000000000000000000200000000000000000000000,
100000100000100000100000100000100000100000100000,
100000200000100000100000000000100000200000000000,
100000200000100000100000000000100000200000000000,
100000200000100000100000000000100000200000000000,
100000100000100000100000100000100000200000000000,
100000200000100000100000000000100000200000000000,
100000200000100000100000000000100000200000000000,
100000200000100000100000000000100000200000000000,
100000100000100000100000100000100000200000000000,
100000200000100000100000000000100000200000000000,
100000200000100000100000000000100000200000000000,
100000200000100000100000000000100000200000000000,
100000100000100000100000100000100000200000000000,
100000200000100000100000000000100000200000000000,
100000200000100000100000000000100000200000000000,
100000200000100000100000000000100000200000000000,
100000100000100000100000100000100000200000000000,
400000000000000000400000000000000000400000000000,
000000000000100000000000200000000000100000000000,
400000000000000000400000000000000000400000000000,
000000000000400000000000400000000000300000000000,
100000100000100000100000000000000000000000000000,
200000200000200000200000000000000000000000000000,
100000000000200000000000100000000000200000100000,
000000100000200000000000100000000000200000200000,
100000100000100000100000000000000000000000000000,
200000200000200000200000000000000000000000000000,
100000000000200000000000100000000000200000100000,
000000100000200000000000100000000000200000200000,
100000100000100000100000000000000000000000000000,
200000200000200000200000000000000000000000000000,
100000000000200000000000100000000000200000100000,
000000100000200000000000100000000000200000200000,
100000100000100000100000000000000000000000000000,
200000200000200000200000000000000000000000000000,
100000000000200000000000100000000000200000100000,
000000100000200000200000100000100000100000100000,
100000000000200000000000100000100000200000000000,
100000000000200000100000000000100000200000000000,
100000000000200000000000100000100000200000000000,
100000000000200000100000000000100000200000000000,
100000000000200000000000100000100000200000000000,
100000000000200000100000000000100000200000000000,
100000000000200000000000100000100000200000000000,
100000000000200000100000000000100000200000000000,
100000000000200000000000100000100000200000000000,
100000000000200000100000000000100000200000000000,
100000000000200000000000100000100000200000000000,
100000000000200000100000000000100000200000000000,
100000000000200000000000100000100000200000000000,
100000000000200000000000100000100000200000000000,
400000000000000000400000000000000000400000000000,
100000000000200000200000100000100000100000100000,
#GOGOSTART
100000000000200000000000100000100000200000000000,
100000100000200000200000100000100000200000000000,
100000000000200000000000100000100000200000000000,
100000100000200000200000100000100000200000000000,
100000000000200000000000100000100000200000000000,
100000100000200000200000100000100000200000000000,
100000000000200000000000100000100000200000200000,
400000000000000000400000000000000400000000000000,
100000000000200000000000100000100000200000000000,
100000100000200000200000100000100000200000000000,
100000000000200000000000100000100000200000000000,
100000100000200000200000100000100000200000000000,
300000000000000000000000000000000000300000000000,
300000000000000000000000400000000000000000000000,
100000100000100000100000100000100000100000100000,
300000000000000000300000000000000000300000000000,
100000100000100000100000100000100000100000100000,
300000000000000000300000000000000000300000000000,
100000200000200000200000100000200000200000200000,
300000000000000000300000000000000000300000000000,
100000200000200000200000100000200000200000200000,
300000000000000000300000000000000000000000000000,
#GOGOEND
#END
COURSE:Hard
LEVEL:7
SCOREINIT:780
SCOREDIFF:190
#START
#SCROLL 0.67
200000000000000000000000200000000000000000000000,
100000100000100000100000100000000000000000000000,
100000000000200000000000100000000000100000100000,
000000100000100000000000100000000000000000000000,
100000000000200000000000100000000000100000100000,
000000100000100000000000200000000000000000000000,
100000000000200000000000100000000000100000100000,
000000100000100000000000100000000000000000000000,
100000000000200000000000100000000000100000100000,
000000100000100000000000200000000000000000000000,
100000000000200000000000100000000000100000100000,
000000100000100000000000100000000000000000000000,
100000000000200000000000100000000000100000100000,
000000100000100000000000200000000000000000000000,
100000000000200000000000100000000000100000100000,
000000100000100000000000100000000000000000000000,
100000000000200000000000100000000000100000100000,
000000100000100000000000200000000000000000000000,
400000000000000000400000000000000000400000000000,
000000000000100000000000100000000000100000000000,
400000000000000000400000000000000000400000000000,
000000000000300000000000300000000000300000000000,
100000100000100000100000000000000000000000000000,
200000200000200000200000000000000000000000000000,
100000000000200000000000100000000000100000100000,
000000100000100000000000100000000000000000000000,
100000100000100000100000000000000000000000000000,
200000200000200000200000000000000000000000000000,
100000000000200000000000100000000000100000100000,
000000100000100000000000100000000000000000000000,
100000100000100000100000000000000000000000000000,
200000200000200000200000000000000000000000000000,
100000000000200000000000100000000000100000100000,
000000100000100000000000100000000000000000000000,
100000100000100000100000000000000000000000000000,
200000200000200000200000000000000000000000000000,
100000000000200000000000100000000000100000100000,
000000100000100000000000100000000000000000000000,
100000000000200000000000100000000000000000000000,
100000000000100000100000000000100000100000000000,
100000000000200000000000100000000000000000000000,
100000000000100000100000000000100000100000000000,
100000000000200000000000100000000000000000000000,
200000000000200000200000000000200000200000000000,
100000000000200000000000100000000000000000000000,
200000000000200000200000000000200000200000000000,
100000000000200000000000100000000000000000000000,
100000000000100000100000000000100000100000000000,
100000000000200000000000100000000000000000000000,
100000000000200000000000100000000000200000000000,
500000000000000000000000000000000000000000800000,
000000000000100000000000100000000000100000000000,
400000000000000000400000000000000000400000000000,
500000000000000000000000000000800000000000000000,
#GOGOSTART
100000000000200000000000100000000000200000000000,
100000100000100000000000100000100000100000000000,
100000000000200000000000100000000000200000000000,
100000100000100000000000100000000000000000000000,
100000000000200000000000100000000000200000000000,
100000100000100000000000100000100000100000000000,
100000000000200000000000100000000000200000000000,
400000000000000000400000000000000000400000000000,
100000000000200000000000100000000000200000000000,
100000100000100000000000100000100000100000000000,
100000000000200000000000100000000000200000000000,
100000100000100000000000100000000000000000000000,
100000000000000000000000000000000000100000000000,
100000000000100000000000100000000000100000000000,
100000100000100000100000100000000000000000000000,
300000000000000000300000000000000000300000000000,
100000100000100000100000100000000000000000000000,
300000000000000000300000000000000000300000000000,
100000100000100000100000100000000000000000000000,
300000000000000000300000000000000000300000000000,
100000100000100000100000100000000000000000000000,
300000000000000000300000000000000000000000000000,
#END
COURSE:Normal
LEVEL:3
BALLOON:5
SCOREINIT:1120
SCOREDIFF:400
#START
#SCROLL 0.5
#MEASURE 8/4
200000000000000000000000200000000000000000000000700000000000000000000000000000000000800000000000,
000000000000000000000000000000000000000000000000100000000000000000000000100000000000000000000000,
100000000000000000000000000000000000000000000000100000000000000000000000000000000000000000000000,
100000000000000000000000100000000000000000000000100000000000000000000000100000000000000000000000,
100000000000000000000000000000000000000000000000100000000000000000000000000000000000000000000000,
100000000000000000000000100000000000000000000000100000000000000000000000100000000000000000000000,
100000000000000000000000000000000000000000000000100000000000000000000000000000000000000000000000,
100000000000000000000000100000000000000000000000100000000000000000000000100000000000000000000000,
100000000000000000000000000000000000000000000000100000000000000000000000000000000000000000000000,
400000000000000000000000000000000000400000000000000000000000000000000000000000000000000000000000,
400000000000000000000000000000000000400000000000000000000000000000000000000000000000000000000000,
300000000000000000000000000000000000000000000000400000000000000000000000000000000000000000000000,
100000000000000000000000100000000000000000000000100000000000000000000000100000000000000000000000,
300000000000000000000000000000000000000000000000400000000000000000000000000000000000000000000000,
100000000000000000000000100000000000000000000000100000000000000000000000100000000000000000000000,
300000000000000000000000000000000000000000000000400000000000000000000000000000000000000000000000,
100000000000000000000000100000000000000000000000100000000000000000000000100000000000000000000000,
300000000000000000000000000000000000000000000000400000000000000000000000000000000000000000000000,
100000000000000000000000100000000000000000000000100000000000000000000000000000000000000000000000,
100000000000000000000000100000000000000000000000100000000000000000000000000000000000000000000000,
100000000000000000000000100000000000000000000000100000000000000000000000100000000000000000000000,
100000000000000000000000100000000000000000000000100000000000000000000000000000000000000000000000,
100000000000000000000000100000000000000000000000200000000000000000000000200000000000000000000000,
100000000000000000000000100000000000000000000000100000000000000000000000000000000000000000000000,
100000000000000000000000100000000000000000000000100000000000000000000000100000000000000000000000,
100000000000000000000000000000000000000000000000400000000000000000400000000000000000000000000000,
#GOGOSTART
100000000000000000000000100000000000000000000000100000000000000000000000100000000000000000000000,
100000000000000000000000100000000000000000000000100000000000000000000000000000000000000000000000,
100000000000000000000000100000000000000000000000100000000000000000000000100000000000000000000000,
200000000000000000000000200000000000000000000000200000000000000000000000000000000000000000000000,
100000000000000000000000100000000000000000000000100000000000000000000000100000000000000000000000,
100000000000000000000000100000000000000000000000100000000000000000000000000000000000000000000000,
100000000000000000000000000000000000100000000000100000000000000000000000100000000000000000000000,
100000000000000000000000000000000000000000000000300000000000000000300000000000000000300000000000,
000000000000000000000000000000000000000000000000300000000000000000300000000000000000300000000000,
000000000000000000000000000000000000000000000000300000000000000000300000000000000000300000000000,
000000000000000000000000000000000000000000000000300000000000000000300000000000000000000000000000,
#END
COURSE:Easy
LEVEL:3
BALLOON:4
SCOREINIT:1070
SCOREDIFF:510
#START
200000000000200000000000700000000000000000800000,
000000000000000000000000100000000000000000000000,
100000000000100000000000100000000000000000000000,
100000000000000000000000100000000000000000000000,
100000000000100000000000100000000000000000000000,
100000000000000000000000100000000000000000000000,
100000000000100000000000100000000000000000000000,
100000000000000000000000100000000000000000000000,
100000000000100000000000100000000000000000000000,
400000000000000000000000000000000000000000000000,
400000000000000000000000000000000000000000000000,
300000000000000000000000400000000000000000000000,
100000000000100000000000100000000000000000000000,
300000000000000000000000400000000000000000000000,
100000000000100000000000100000000000000000000000,
300000000000000000000000400000000000000000000000,
100000000000100000000000100000000000000000000000,
300000000000000000000000400000000000000000000000,
100000000000100000000000100000000000000000000000,
100000000000000000000000100000000000000000000000,
100000000000100000000000100000000000000000000000,
100000000000000000000000100000000000000000000000,
100000000000100000000000100000000000000000000000,
100000000000000000000000100000000000000000000000,
100000000000100000000000100000000000100000000000,
100000000000000000000000000000000000000000000000,
400000000000000000000000000000000000000000000000,
#GOGOSTART
100000000000100000000000100000000000100000000000,
100000000000000000000000300000000000000000000000,
100000000000100000000000100000000000100000000000,
100000000000000000000000400000000000000000000000,
100000000000100000000000100000000000100000000000,
100000000000000000000000300000000000000000000000,
100000000000000000100000100000000000000000000000,
100000000000000000000000600000000000000000800000,
000000000000000000000000600000000000000000800000,
000000000000000000000000600000000000000000800000,
000000000000000000000000300000000000000000000000,
#GOGOEND
#END