630 lines
22 KiB
Plaintext
630 lines
22 KiB
Plaintext
//TJADB Project
|
||
TITLE:Mr. Moonlight ~Ai no Big Band~
|
||
TITLEJA:Mr.Moonlight 愛のビッグバンド
|
||
SUBTITLE:--Morning Musume
|
||
BPM:183
|
||
WAVE:Mr. Moonlight ~Ai no Big Band~.ogg
|
||
OFFSET:-7.015
|
||
DEMOSTART:59.474
|
||
|
||
COURSE:Oni
|
||
LEVEL:4
|
||
|
||
STYLE:Double
|
||
BALLOON:10,15
|
||
|
||
|
||
#START P1
|
||
|
||
|
||
500000000000000000000000000000000008000000000000,
|
||
300000000000000000000000000000000000000000000000,
|
||
000000001000100000000000000000001000100000000000,
|
||
000000000000200000000000000000000000200000000000,
|
||
000000001000100000000000000000001000100000000000,
|
||
200000000000200000000000200000000000000000000000,
|
||
000000001000100000000000000000001000100000000000,
|
||
000000000000200000000000000000000000200000000000,
|
||
300000000000000000000000000000000000000000000000,
|
||
500000000000000000000008000000000000000000000000,
|
||
100000000000100000000000100000000000200000000000,
|
||
100000000000200000000000100000000000200000000000,
|
||
100000000000100000000000100000000000200000000000,
|
||
100000000000200000000000200000000000000000000000,
|
||
100000000000200000000000100000000000200000000000,
|
||
100000000000200000000000100000000000200000000000,
|
||
100000001000000010000000100000001000000000300000,
|
||
000000000000000000000000000000000000200000000000,
|
||
000000001000100000000000000000001000100000000000,
|
||
000000000000200000000000000000000000200000000000,
|
||
000000001000100000000000000000001000100000000000,
|
||
200000000000200000000000200000000000000000000000,
|
||
100000000000100000000000100000000000200000000000,
|
||
100000000000200000000000100000000000200000000000,
|
||
100000000000100000000000100000000000200000000000,
|
||
100000000000200000000000200000000000000000000000,
|
||
100000000000200000000000100000000000200000000000,
|
||
100000000000200000000000100000000000200000000000,
|
||
100000001000000010000000100000001000000000400000,
|
||
000000000000000000000000000000000000200000000000,
|
||
100000000000100000000000100100100100100000000000,
|
||
100000000000100000000000100100100100100000000000,
|
||
300000000000000000000000300000000000000000000000,
|
||
100000000000100000000000200200200200200000000000,
|
||
100000000000100000000000100100100100100000000000,
|
||
100000000000100000000000100100100100100000000000,
|
||
300000000000000000000000400000000000000000000000,
|
||
500000000008000000000000500000000008000000000000,
|
||
300000000000000000000000400000000000000000000000,
|
||
600000000000000000000008000000000000000000000000,
|
||
1212,
|
||
1111,
|
||
1212,
|
||
1111,
|
||
1212,
|
||
1111,
|
||
100000001000000010000000100000001000000000700000,
|
||
000000000000000000000000000000000000000000000000,
|
||
800000000000000000000000000000000000000000000000,
|
||
100101001100,
|
||
000202002200,
|
||
100101001100,
|
||
000202002200,
|
||
100000000000100000001000000000002000200000000000,
|
||
100000000000100000001000000000002000200000000000,
|
||
100000000000000000000000100000000000000000000000,
|
||
100000000000000000003000000000000000000000000000,
|
||
100101001100,
|
||
,
|
||
100101001100,
|
||
,
|
||
100000000000100000001000000000002000200000000000,
|
||
100000000000100000001000000000000000000000000000,
|
||
700000000000000000000000000000000000000000000000,
|
||
000000000000000000000000000000000000800000000000,
|
||
|
||
|
||
#END
|
||
|
||
|
||
#START P2
|
||
|
||
|
||
500000000000000000000000000000000008000000000000,
|
||
300000000000000000000000000000000000000000000000,
|
||
000000001000100000000000000000001000100000000000,
|
||
000000000000200000000000000000000000200000000000,
|
||
000000001000100000000000000000001000100000000000,
|
||
200000000000200000000000200000000000000000000000,
|
||
000000001000100000000000000000001000100000000000,
|
||
000000000000200000000000000000000000200000000000,
|
||
300000000000000000000000000000000000000000000000,
|
||
500000000000000000000008000000000000000000000000,
|
||
100000000000100000000000100000000000200000000000,
|
||
100000000000200000000000100000000000200000000000,
|
||
100000000000100000000000100000000000200000000000,
|
||
100000000000200000000000200000000000000000000000,
|
||
100000000000200000000000100000000000200000000000,
|
||
100000000000200000000000100000000000200000000000,
|
||
100000001000000010000000100000001000000000300000,
|
||
000000000000000000000000000000000000200000000000,
|
||
000000001000100000000000000000001000100000000000,
|
||
000000000000200000000000000000000000200000000000,
|
||
000000001000100000000000000000001000100000000000,
|
||
200000000000200000000000200000000000000000000000,
|
||
100000000000100000000000100000000000200000000000,
|
||
100000000000200000000000100000000000200000000000,
|
||
100000000000100000000000100000000000200000000000,
|
||
100000000000200000000000200000000000000000000000,
|
||
100000000000200000000000100000000000200000000000,
|
||
100000000000200000000000100000000000200000000000,
|
||
100000001000000010000000100000001000000000400000,
|
||
000000000000000000000000000000000000200000000000,
|
||
100000000000100000000000100100100100100000000000,
|
||
100000000000100000000000100100100100100000000000,
|
||
300000000000000000000000300000000000000000000000,
|
||
100000000000100000000000200200200200200000000000,
|
||
100000000000100000000000100100100100100000000000,
|
||
100000000000100000000000100100100100100000000000,
|
||
300000000000000000000000400000000000000000000000,
|
||
500000000008000000000000500000000008000000000000,
|
||
300000000000000000000000400000000000000000000000,
|
||
600000000000000000000008000000000000000000000000,
|
||
1111,
|
||
1212,
|
||
1111,
|
||
1212,
|
||
1111,
|
||
1212,
|
||
100000001000000010000000100000001000000000700000,
|
||
000000000000000000000000000000000000000000000000,
|
||
800000000000000000000000000000000000000000000000,
|
||
100101001100,
|
||
,
|
||
100101001100,
|
||
,
|
||
100000000000100000001000000000002000200000000000,
|
||
100000000000100000001000000000002000200000000000,
|
||
100000000000000000000000100000000000000000000000,
|
||
100000000000000000003000000000000000000000000000,
|
||
100101001100,
|
||
000202002200,
|
||
100101001100,
|
||
000202002200,
|
||
100000000000100000001000000000002000200000000000,
|
||
100000000000100000001000000000000000000000000000,
|
||
700000000000000000000000000000000000000000000000,
|
||
000000000000000000000000000000000000800000000000,
|
||
|
||
|
||
#END
|
||
|
||
|
||
COURSE:Hard
|
||
LEVEL:1
|
||
|
||
STYLE:Double
|
||
BALLOON:10,15
|
||
SCOREINIT:690
|
||
SCOREDIFF:160
|
||
|
||
|
||
#START P1
|
||
|
||
|
||
500000000000000000000000000000000008000000000000,
|
||
300000000000000000000000000000000000000000000000,
|
||
000000001000100000000000000000001000100000000000,
|
||
000000000000200000000000000000000000200000000000,
|
||
000000001000100000000000000000001000100000000000,
|
||
200000000000200000000000200000000000000000000000,
|
||
000000001000100000000000000000001000100000000000,
|
||
000000000000200000000000000000000000200000000000,
|
||
300000000000000000000000000000000000000000000000,
|
||
500000000000000000000008000000000000000000000000,
|
||
100000000000100000000000100000000000200000000000,
|
||
100000000000200000000000100000000000200000000000,
|
||
100000000000100000000000100000000000200000000000,
|
||
100000000000200000000000200000000000000000000000,
|
||
100000000000200000000000100000000000200000000000,
|
||
100000000000200000000000100000000000200000000000,
|
||
100000001000000010000000100000001000000000300000,
|
||
000000000000000000000000000000000000200000000000,
|
||
000000001000100000000000000000001000100000000000,
|
||
000000000000200000000000000000000000200000000000,
|
||
000000001000100000000000000000001000100000000000,
|
||
200000000000200000000000200000000000000000000000,
|
||
100000000000100000000000100000000000200000000000,
|
||
100000000000200000000000100000000000200000000000,
|
||
100000000000100000000000100000000000200000000000,
|
||
100000000000200000000000200000000000000000000000,
|
||
100000000000200000000000100000000000200000000000,
|
||
100000000000200000000000100000000000200000000000,
|
||
100000001000000010000000100000001000000000400000,
|
||
000000000000000000000000000000000000200000000000,
|
||
100000000000100000000000100100100100100000000000,
|
||
100000000000100000000000100100100100100000000000,
|
||
300000000000000000000000300000000000000000000000,
|
||
100000000000100000000000200200200200200000000000,
|
||
100000000000100000000000100100100100100000000000,
|
||
100000000000100000000000100100100100100000000000,
|
||
300000000000000000000000400000000000000000000000,
|
||
500000000008000000000000500000000008000000000000,
|
||
300000000000000000000000400000000000000000000000,
|
||
600000000000000000000008000000000000000000000000,
|
||
1212,
|
||
1111,
|
||
1212,
|
||
1111,
|
||
1212,
|
||
1111,
|
||
100000001000000010000000100000001000000000700000,
|
||
000000000000000000000000000000000000000000000000,
|
||
800000000000000000000000000000000000000000000000,
|
||
100101001100,
|
||
000202002200,
|
||
100101001100,
|
||
000202002200,
|
||
100000000000100000001000000000002000200000000000,
|
||
100000000000100000001000000000002000200000000000,
|
||
100000000000000000000000100000000000000000000000,
|
||
100000000000000000003000000000000000000000000000,
|
||
100101001100,
|
||
,
|
||
100101001100,
|
||
,
|
||
100000000000100000001000000000002000200000000000,
|
||
100000000000100000001000000000000000000000000000,
|
||
700000000000000000000000000000000000000000000000,
|
||
000000000000000000000000000000000000800000000000,
|
||
|
||
|
||
#END
|
||
|
||
|
||
#START P2
|
||
|
||
|
||
500000000000000000000000000000000008000000000000,
|
||
300000000000000000000000000000000000000000000000,
|
||
000000001000100000000000000000001000100000000000,
|
||
000000000000200000000000000000000000200000000000,
|
||
000000001000100000000000000000001000100000000000,
|
||
200000000000200000000000200000000000000000000000,
|
||
000000001000100000000000000000001000100000000000,
|
||
000000000000200000000000000000000000200000000000,
|
||
300000000000000000000000000000000000000000000000,
|
||
500000000000000000000008000000000000000000000000,
|
||
100000000000100000000000100000000000200000000000,
|
||
100000000000200000000000100000000000200000000000,
|
||
100000000000100000000000100000000000200000000000,
|
||
100000000000200000000000200000000000000000000000,
|
||
100000000000200000000000100000000000200000000000,
|
||
100000000000200000000000100000000000200000000000,
|
||
100000001000000010000000100000001000000000300000,
|
||
000000000000000000000000000000000000200000000000,
|
||
000000001000100000000000000000001000100000000000,
|
||
000000000000200000000000000000000000200000000000,
|
||
000000001000100000000000000000001000100000000000,
|
||
200000000000200000000000200000000000000000000000,
|
||
100000000000100000000000100000000000200000000000,
|
||
100000000000200000000000100000000000200000000000,
|
||
100000000000100000000000100000000000200000000000,
|
||
100000000000200000000000200000000000000000000000,
|
||
100000000000200000000000100000000000200000000000,
|
||
100000000000200000000000100000000000200000000000,
|
||
100000001000000010000000100000001000000000400000,
|
||
000000000000000000000000000000000000200000000000,
|
||
100000000000100000000000100100100100100000000000,
|
||
100000000000100000000000100100100100100000000000,
|
||
300000000000000000000000300000000000000000000000,
|
||
100000000000100000000000200200200200200000000000,
|
||
100000000000100000000000100100100100100000000000,
|
||
100000000000100000000000100100100100100000000000,
|
||
300000000000000000000000400000000000000000000000,
|
||
500000000008000000000000500000000008000000000000,
|
||
300000000000000000000000400000000000000000000000,
|
||
600000000000000000000008000000000000000000000000,
|
||
1111,
|
||
1212,
|
||
1111,
|
||
1212,
|
||
1111,
|
||
1212,
|
||
100000001000000010000000100000001000000000700000,
|
||
000000000000000000000000000000000000000000000000,
|
||
800000000000000000000000000000000000000000000000,
|
||
100101001100,
|
||
,
|
||
100101001100,
|
||
,
|
||
100000000000100000001000000000002000200000000000,
|
||
100000000000100000001000000000002000200000000000,
|
||
100000000000000000000000100000000000000000000000,
|
||
100000000000000000003000000000000000000000000000,
|
||
100101001100,
|
||
000202002200,
|
||
100101001100,
|
||
000202002200,
|
||
100000000000100000001000000000002000200000000000,
|
||
100000000000100000001000000000000000000000000000,
|
||
700000000000000000000000000000000000000000000000,
|
||
000000000000000000000000000000000000800000000000,
|
||
|
||
|
||
#END
|
||
|
||
|
||
COURSE:Normal
|
||
LEVEL:3
|
||
|
||
STYLE:Double
|
||
BALLOON:10,10
|
||
SCOREINIT:1140
|
||
SCOREDIFF:340
|
||
|
||
|
||
#START P1
|
||
|
||
|
||
000000000000000000000000000000000000000000000000,
|
||
300000000000000000000000000000000000000000000000,
|
||
000000000000000000000000000000000000000000000000,
|
||
100000000000100000000000100000000000200000000000,
|
||
000000000000000000000000000000000000000000000000,
|
||
100000000000100000000000100000000000000000000000,
|
||
000000000000000000000000000000000000000000000000,
|
||
100000000000100000000000100000000000200000000000,
|
||
300000000000000000000000000000000000000000000000,
|
||
500000000000000000800000000000000000000000000000,
|
||
100000000000100000000000100000000000200000000000,
|
||
100000000000100000000000200000000000000000000000,
|
||
100000000000100000000000100000000000200000000000,
|
||
100000000000100000000000200000000000000000000000,
|
||
100000000000200000000000100000000000200000000000,
|
||
100000000000200000000000100000000000200000000000,
|
||
300000000000000000000000400000000000000000000000,
|
||
300000000000000000000000000000000000200000000000,
|
||
000000000000000000000000000000000000000000000000,
|
||
100000000000100000000000100000000000200000000000,
|
||
000000000000000000000000000000000000000000000000,
|
||
100000000000100000000000100000000000000000000000,
|
||
100000000000200000000000100000000000100000000000,
|
||
200000000000200000000000200000000000000000000000,
|
||
100000000000200000000000100000000000100000000000,
|
||
200000000000200000000000200000000000000000000000,
|
||
100000000000200000000000100000000000200000000000,
|
||
100000000000200000000000100000000000200000000000,
|
||
300000000000000000000000400000000000000000000000,
|
||
300000000000000000000000000000000000200000000000,
|
||
100000000000100000000000100000000000200000000000,
|
||
100000000000100000000000100000000000200000000000,
|
||
300000000000000000000000300000000000000000000000,
|
||
100000000000100000000000100000000000200000000000,
|
||
100000000000100000000000100000000000200000000000,
|
||
100000000000100000000000100000000000200000000000,
|
||
300000000000000000000000300000000000000000000000,
|
||
400000000000000000000000400000000000000000000000,
|
||
300000000000000000000000300000000000000000000000,
|
||
500000000000000000000000000000800000000000000000,
|
||
1112,
|
||
0101,
|
||
1112,
|
||
0202,
|
||
100000000000200000000000100000000000200000000000,
|
||
100000000000200000000000100000000000200000000000,
|
||
300000000000000000000000400000000000000000000000,
|
||
700000000000000000000000000000000000000000800000,
|
||
000000000000200000000000200000000000200000000000,
|
||
100101001100,
|
||
0202,
|
||
100101001100,
|
||
0202,
|
||
100000000000100000001000000000000000000000000000,
|
||
100000000000100000001000000000000000000000000000,
|
||
100000000000000000000000100000000000000000000000,
|
||
500000000000000000000000000000008000000000000000,
|
||
100101001100,
|
||
,
|
||
100101001100,
|
||
100000000000100000001000000000000000000000000000,
|
||
300000000000000000000000000000000000000000000000,
|
||
700000000000000000000000000000000000000000000000,
|
||
000000000000000000000000000000800000000000000000,
|
||
|
||
|
||
#END
|
||
|
||
|
||
#START P2
|
||
|
||
|
||
000000000000000000000000000000000000000000000000,
|
||
300000000000000000000000000000000000000000000000,
|
||
000000000000000000000000000000000000000000000000,
|
||
100000000000100000000000100000000000200000000000,
|
||
000000000000000000000000000000000000000000000000,
|
||
100000000000100000000000100000000000000000000000,
|
||
000000000000000000000000000000000000000000000000,
|
||
100000000000100000000000100000000000200000000000,
|
||
300000000000000000000000000000000000000000000000,
|
||
500000000000000000800000000000000000000000000000,
|
||
100000000000100000000000100000000000200000000000,
|
||
100000000000100000000000200000000000000000000000,
|
||
100000000000100000000000100000000000200000000000,
|
||
100000000000100000000000200000000000000000000000,
|
||
100000000000200000000000100000000000200000000000,
|
||
100000000000200000000000100000000000200000000000,
|
||
300000000000000000000000400000000000000000000000,
|
||
300000000000000000000000000000000000200000000000,
|
||
000000000000000000000000000000000000000000000000,
|
||
100000000000100000000000100000000000200000000000,
|
||
000000000000000000000000000000000000000000000000,
|
||
100000000000100000000000100000000000000000000000,
|
||
100000000000200000000000100000000000100000000000,
|
||
200000000000200000000000200000000000000000000000,
|
||
100000000000200000000000100000000000100000000000,
|
||
200000000000200000000000200000000000000000000000,
|
||
100000000000200000000000100000000000200000000000,
|
||
100000000000200000000000100000000000200000000000,
|
||
300000000000000000000000400000000000000000000000,
|
||
300000000000000000000000000000000000200000000000,
|
||
100000000000100000000000100000000000200000000000,
|
||
100000000000100000000000100000000000200000000000,
|
||
300000000000000000000000300000000000000000000000,
|
||
100000000000100000000000100000000000200000000000,
|
||
100000000000100000000000100000000000200000000000,
|
||
100000000000100000000000100000000000200000000000,
|
||
300000000000000000000000300000000000000000000000,
|
||
400000000000000000000000400000000000000000000000,
|
||
300000000000000000000000300000000000000000000000,
|
||
500000000000000000000000000000800000000000000000,
|
||
1112,
|
||
0202,
|
||
1112,
|
||
0101,
|
||
100000000000200000000000100000000000200000000000,
|
||
100000000000200000000000100000000000200000000000,
|
||
300000000000000000000000400000000000000000000000,
|
||
700000000000000000000000000000000000000000800000,
|
||
000000000000200000000000200000000000200000000000,
|
||
100101001100,
|
||
,
|
||
100101001100,
|
||
,
|
||
100000000000100000001000000000000000000000000000,
|
||
100000000000100000001000000000000000000000000000,
|
||
100000000000000000000000100000000000000000000000,
|
||
500000000000000000000000000000008000000000000000,
|
||
100101001100,
|
||
0202,
|
||
100101001100,
|
||
0202,
|
||
100000000000100000001000000000000000000000000000,
|
||
300000000000000000000000000000000000000000000000,
|
||
700000000000000000000000000000000000000000000000,
|
||
000000000000000000000000000000800000000000000000,
|
||
|
||
|
||
#END
|
||
|
||
|
||
COURSE:Easy
|
||
LEVEL:4
|
||
|
||
STYLE:Double
|
||
BALLOON:10,10
|
||
SCOREINIT:1200
|
||
SCOREDIFF:420
|
||
|
||
|
||
#START P1
|
||
|
||
|
||
000000000000000000000000000000000000000000000000,
|
||
300000000000000000000000000000000000000000000000,
|
||
000000000000000000000000000000000000000000000000,
|
||
100000000000000000000000100000000000000000000000,
|
||
000000000000000000000000000000000000000000000000,
|
||
100000000000100000000000100000000000000000000000,
|
||
000000000000000000000000000000000000000000000000,
|
||
100000000000000000000000100000000000000000000000,
|
||
000000000000000000000000000000000000000000000000,
|
||
300000000000000000000000000000000000000000000000,
|
||
500000000000000000800000000000000000000000000000,
|
||
1111,
|
||
2220,
|
||
1111,
|
||
2220,
|
||
100000000000200000000000100000000000200000000000,
|
||
100000000000200000000000100000000000200000000000,
|
||
300000000000000000000000000000000000000000000000,
|
||
000000000000000000000000000000000000200000000000,
|
||
000000000000000000000000000000000000000000000000,
|
||
100000000000000000000000100000000000000000000000,
|
||
000000000000000000000000000000000000000000000000,
|
||
100000000000100000000000100000000000000000000000,
|
||
2222,
|
||
1110,
|
||
2222,
|
||
1110,
|
||
100000000000200000000000100000000000200000000000,
|
||
100000000000200000000000100000000000200000000000,
|
||
300000000000000000000000000000000000000000000000,
|
||
000000000000000000000000000000000000200000000000,
|
||
100000000000100000000000100000000000000000000000,
|
||
100000000000100000000000100000000000000000000000,
|
||
300000000000000000000000300000000000000000000000,
|
||
100000000000100000000000100000000000000000000000,
|
||
100000000000100000000000100000000000000000000000,
|
||
100000000000100000000000100000000000000000000000,
|
||
300000000000000000000000000000000000000000000000,
|
||
400000000000000000000000000000000000000000000000,
|
||
300000000000000000000000000000000000000000000000,
|
||
500000000000000000000000000000800000000000000000,
|
||
11,
|
||
11,
|
||
11,
|
||
11,
|
||
100000000000100000000000100000000000100000000000,
|
||
200000000000200000000000200000000000200000000000,
|
||
300000000000000000000000400000000000000000000000,
|
||
700000000000000000000000000000000000000000800000,
|
||
000000000000000000000000000000000000000000000000,
|
||
100101000000,
|
||
0202,
|
||
100101000000,
|
||
0202,
|
||
,
|
||
100000000000000000000000000000000000000000000000,
|
||
100000000000000000000000000000000000000000000000,
|
||
100000000000000000000000100000000000000000000000,
|
||
100000000000000000000000100000000000000000000000,
|
||
100101000000,
|
||
,
|
||
100101000000,
|
||
,
|
||
300000000000000000000000000000000000000000000000,
|
||
100000000000000000000000100000000000000000000000,
|
||
700000000000000000000000000000000000000000000000,
|
||
000000000000000000000000000000800000000000000000,
|
||
|
||
|
||
#END
|
||
|
||
|
||
#START P2
|
||
|
||
|
||
000000000000000000000000000000000000000000000000,
|
||
300000000000000000000000000000000000000000000000,
|
||
000000000000000000000000000000000000000000000000,
|
||
100000000000000000000000100000000000000000000000,
|
||
000000000000000000000000000000000000000000000000,
|
||
100000000000100000000000100000000000000000000000,
|
||
000000000000000000000000000000000000000000000000,
|
||
100000000000000000000000100000000000000000000000,
|
||
000000000000000000000000000000000000000000000000,
|
||
300000000000000000000000000000000000000000000000,
|
||
500000000000000000800000000000000000000000000000,
|
||
2222,
|
||
1110,
|
||
2222,
|
||
1110,
|
||
100000000000200000000000100000000000200000000000,
|
||
100000000000200000000000100000000000200000000000,
|
||
300000000000000000000000000000000000000000000000,
|
||
000000000000000000000000000000000000200000000000,
|
||
000000000000000000000000000000000000000000000000,
|
||
100000000000000000000000100000000000000000000000,
|
||
000000000000000000000000000000000000000000000000,
|
||
100000000000100000000000100000000000000000000000,
|
||
1111,
|
||
2220,
|
||
1111,
|
||
2220,
|
||
100000000000200000000000100000000000200000000000,
|
||
100000000000200000000000100000000000200000000000,
|
||
300000000000000000000000000000000000000000000000,
|
||
000000000000000000000000000000000000200000000000,
|
||
100000000000100000000000100000000000000000000000,
|
||
100000000000100000000000100000000000000000000000,
|
||
300000000000000000000000300000000000000000000000,
|
||
100000000000100000000000100000000000000000000000,
|
||
100000000000100000000000100000000000000000000000,
|
||
100000000000100000000000100000000000000000000000,
|
||
300000000000000000000000000000000000000000000000,
|
||
400000000000000000000000000000000000000000000000,
|
||
300000000000000000000000000000000000000000000000,
|
||
500000000000000000000000000000800000000000000000,
|
||
0202,
|
||
0202,
|
||
0202,
|
||
0202,
|
||
100000000000100000000000100000000000100000000000,
|
||
200000000000200000000000200000000000200000000000,
|
||
300000000000000000000000400000000000000000000000,
|
||
700000000000000000000000000000000000000000800000,
|
||
000000000000000000000000000000000000000000000000,
|
||
100101000000,
|
||
,
|
||
100101000000,
|
||
,
|
||
,
|
||
100000000000000000000000000000000000000000000000,
|
||
100000000000000000000000000000000000000000000000,
|
||
100000000000000000000000100000000000000000000000,
|
||
100000000000000000000000100000000000000000000000,
|
||
100101000000,
|
||
0202,
|
||
100101000000,
|
||
0202,
|
||
300000000000000000000000000000000000000000000000,
|
||
100000000000000000000000100000000000000000000000,
|
||
700000000000000000000000000000000000000000000000,
|
||
000000000000000000000000000000800000000000000000,
|
||
|
||
|
||
#END
|
||
|