Files
ESE/01 Pop/NaNaNa/NaNaNa.tja
T

563 lines
14 KiB
Plaintext

//TJADB Project
TITLE:NaNaNa
TITLEZH:NANANA
SUBTITLE:--Kenji Wu feat. Cyndi Wang
BPM:124
WAVE:NaNaNa.ogg
OFFSET:-2.229
DEMOSTART:56.418
COURSE:Oni
LEVEL:6
SCOREINIT:530
SCOREDIFF:140
#START
10101011,
0020100012201220,
1111,
2020221030000000,
#SECTION
#BRANCHSTART p,75,90
#N
12101220,
12121100,
12101220,
1020102020200022,
2000202020000022,
20222000,
12121210,
1010101022202000,
#E
12121220,
12121100,
12121220,
1020102020200022,
2020202020000022,
22222000,
12121212,
1010101022202000,
#M
12121220,
1020102110102000,
12121220,
1020102120200022,
2022202220020022,
2022202220020020,
12121212,
1010101022102210,
#SECTION
#BRANCHSTART p,75,90
#N
12101220,
12122200,
12101220,
12121200,
2220200010020000,
2220200010010000,
12101220,
#BPMCHANGE 123.47
4040404022202000,
#E
12121220,
12122200,
12121220,
12121200,
2220200010020000,
2220200010010000,
12121220,
#BPMCHANGE 123.47
4040404022202000,
#M
12121220,
12122200,
12121220,
1020102010202220,
2210201010020000,
2210102010010000,
1020102010202210,
#BPMCHANGE 123.47
4040404022202220,
#BPMCHANGE 124
#SECTION
#BRANCHSTART p,75,90
#N
12101221,
02211000,
12101221,
02221020,
12101221,
02212000,
12101221,
0010101011101000,
#E
12121221,
02211000,
12121221,
02221020,
12121221,
02212000,
12121221,
0010101011101110,
#M
12121221,
0022201010000000,
12121221,
0022202010220220,
12121221,
0022201020000000,
1020102010222010,
0010101011101110,
#SECTION
#BRANCHSTART p,75,90
#N
21212121,
01111010,
21212121,
01111020,
21212121,
0010101010002220,
30303033,
01130000,
#E
21212121,
01111210,
21212121,
01111022,
21212121,
0010101010002220,
30303033,
01130000,
#M
21212121,
0010111010221020,
21212121,
0010111010002220,
21212121,
0010111012202202,
30303033,
01130000,
#SECTION
#BRANCHSTART p,75,90
#N
1020010020220200,
1020010020220200,
1020010020220200,
#BPMCHANGE 123.5
1101010110404040,
#E
1021010020220200,
1021010022220200,
1021010020220200,
#BPMCHANGE 123.5
1101010110404040,
#M
1021210020220200,
1021210022220200,
1021210020220200,
#BPMCHANGE 123.5
1101010110404040,
#BPMCHANGE 124
#SECTION
#BRANCHSTART p,75,90
#N
1111,
20002111,
#BPMCHANGE 124.5
1111,
#BPMCHANGE 124
20002111,
12121212,
10121010,
1110111010202010,
0010202011201000,
#E
1111,
20002111,
#BPMCHANGE 124.5
1111,
#BPMCHANGE 124
20002111,
12121212,
10121210,
1110111010202010,
0010202011201000,
#M
1111,
20002111,
#BPMCHANGE 124.5
1111,
#BPMCHANGE 124
20002111,
1220122012201220,
1000102012201000,
1110111010222010,
0010202011201120,
#GOGOSTART
#SECTION
#BRANCHSTART p,75,90
#N
21212020,
1020102010002220,
21212020,
1020102010002220,
21212020,
1020102010002220,
12121221,
#BPMCHANGE 123.75
000000200000100100100000500000000008000000000000,
#E
21212220,
1020102010202220,
21212220,
1020102010202220,
21212220,
1020102010202220,
12121221,
#BPMCHANGE 123.75
000000200000100100100000500000000008000000000000,
#M
2010201020222000,
1020102012201220,
2010201020222000,
1020102012201220,
2010201020222000,
1020102012201220,
1020102010222010,
#BPMCHANGE 123.75
000000200000100100100000500000000008000000000000,
#GOGOEND
#BPMCHANGE 124
#SECTION
#BRANCHSTART p,75,90
#N
10201212,
20201120,
10201212,
2000200010001110,
10201212,
2000200010002220,
1000101010222010,
0010101020202220,
33330000,
#E
10201212,
20201120,
10201212,
2000200010101110,
10201212,
2000200010102220,
1000101010222010,
0010101022202220,
33330000,
#M
1000200012201220,
2000200010102220,
1000200012201220,
2000200010102210,
1000200012201220,
2000200010102220,
1000101010222010,
0010101022202220,
33330000,
#BRANCHEND
#END
COURSE:Hard
LEVEL:4
#START
100000000000100000000000100000000000100000100000,
000000000000000000000000000000000000000000000000,
100000000000100000000000100000000000100000100000,
000000000000000000000000000000000000000000000000,
100000000000100000000000100000000000200000000000,
100000000000100000000000200000200000000000000000,
100000000000100000000000100000000000200000000000,
100000000000100000000000200000200000000000000000,
200000200000200000000000200000000000000000000000,
200000200000200000000000200000000000000000000000,
100000100000200000200000100000100000200000200000,
100000100000200000200000000000000000000000000000,
100000000000100000000000100000000000200000000000,
100000000000100000000000200000200000000000000000,
100000000000100000000000100000000000200000000000,
100000000000100000000000200000200000000000000000,
100000100000100000000000100000000000200000000000,
100000100000100000000000100000000000200000000000,
100000100000200000200000100000100000200000200000,
#BPMCHANGE 123.47
300000000000000000000000000000000000000000000000,
#BPMCHANGE 124
100000000000100000000000100000000000100000000000,
200000000000200000200000200000000000000000000000,
100000000000100000000000100000000000100000000000,
200000000000200000200000200000000000000000000000,
100000000000100000000000100000000000100000000000,
200000000000200000200000200000000000000000000000,
100000000000100000000000100000000000000000100000,
000000100000100000100000100000000000000000000000,
200000000000200000000000200000000000200000000000,
100000000000100000100000100000000000000000000000,
200000000000200000000000200000000000200000000000,
100000000000100000100000100000000000000000000000,
200000000000200000000000200000000000200000000000,
100000000000100000100000100000000000000000000000,
300000000000300000000000300000000000000000300000,
000000000000000000300000000000000000000000000000,
100000000000200000000000000000000000200000000000,
100000000000200000000000000000000000200000000000,
100000000000200000000000000000000000200000000000,
#BPMCHANGE 123.5
100100000100000100000100100000000000000000000000,
#BPMCHANGE 124
100000000000100000000000100000000000100000000000,
200000000000000000000000200000000000000000000000,
#BPMCHANGE 124.5
100000000000100000000000100000000000100000000000,
#BPMCHANGE 124
200000000000000000000000200000000000000000000000,
100000000000100000000000100000000000100000000000,
100000000000100000000000100000000000200000000000,
100000000000100000000000100000000000000000500000,
000000000000000000000000000080000000000000000000,
#GOGOSTART
200000000000200000000000200200200000200000000000,
100000000000100100100000100000000000000000000000,
200000000000200000000000200200200000200000000000,
100000000000100100100000100000000000000000000000,
200000000000200000000000200200200000200000000000,
100000000000100100100000100000000000000000000000,
100000000000100000000000100100100000200000100000,
#BPMCHANGE 123.75
000000100000100100100000100100100000100000300000,
#GOGOEND
#BPMCHANGE 124
000000000000100000000000100000100000200000000000,
100000000000100000000000100000200000200000000000,
000000000000100000000000100000100000200000000000,
100000000000100000000000100000200000200000000000,
000000000000100000000000100000100000200000000000,
100000000000100000000000100000200000100000200000,
000000000000100000000000100000100000500000000000,
000000000000000000000080000000000000000000000000,
100000100000100000100000000000000000000000000000,
#END
COURSE:Normal
LEVEL:3
#START
100000000000100000000000100000000000000000100000,
000000000000000000000000000000000000000000000000,
100000000000100000000000100000000000000000100000,
000000000000000000000000000000000000000000000000,
100000000000100000000000100000000000000000000000,
200000000000200000000000200000000000000000000000,
100000000000100000000000100000000000000000000000,
200000000000200000000000200000000000000000000000,
200000000000000000000000200000000000000000000000,
200000000000000000000000200000000000000000000000,
100000000000100000000000100000000000000000000000,
100000000000000000000000000000000000000000000000,
100000000000100000000000100000000000000000000000,
200000000000200000000000200000000000000000000000,
100000000000100000000000100000000000000000000000,
200000000000200000000000200000000000000000000000,
100000000000000000000000100000000000000000000000,
100000000000000000000000100000000000000000000000,
200000000000200000000000200000000000200000000000,
#BPMCHANGE 123.47
300000000000000000000000000000000000000000000000,
#BPMCHANGE 124
100000000000100000000000100000000000100000000000,
200000000000200000000000200000000000000000000000,
100000000000100000000000100000000000100000000000,
200000000000200000000000200000000000000000000000,
100000000000100000000000100000000000100000000000,
200000000000200000000000200000000000000000000000,
100000000000100000000000100000000000000000000000,
500000000000000000000080000000000000000000000000,
200000000000200000000000200000000000200000000000,
100000000000100000000000100000000000000000000000,
200000000000200000000000200000000000200000000000,
100000000000100000000000100000000000000000000000,
200000000000200000000000200000000000200000000000,
100000000000100000000000100000000000000000000000,
300000000000300000000000300000000000000000300000,
000000000000000000300000000000000000000000000000,
100000000000000000000000000000000000000000000000,
100000000000000000000000000000000000000000000000,
100000000000000000000000000000000000000000000000,
#BPMCHANGE 123.5
100000000000000000000000100000000000000000000000,
#BPMCHANGE 124
100000000000100000000000100000000000100000000000,
200000000000000000000000200000000000000000000000,
#BPMCHANGE 124.5
100000000000100000000000100000000000100000000000,
#BPMCHANGE 124
200000000000000000000000200000000000000000000000,
100000000000100000000000100000000000000000000000,
100000000000100000000000100000000000000000000000,
100000000000100000000000100000000000000000000000,
500000000000000000000080000000000000000000000000,
#GOGOSTART
200000000000200000000000200000200000200000000000,
100000000000100000000000100000000000000000000000,
200000000000200000000000200000200000200000000000,
100000000000100000000000100000000000000000000000,
200000000000200000000000200000200000200000000000,
100000000000100000000000100000000000000000000000,
100000000000100000000000100000000000000000100000,
#BPMCHANGE 123.75
000000000000000000100000000000000000000000300000,
#GOGOEND
#BPMCHANGE 124
000000000000100000000000100000000000000000000000,
100000000000100000000000100000000000200000000000,
000000000000100000000000100000000000000000000000,
100000000000100000000000100000000000200000000000,
000000000000100000000000100000000000000000000000,
100000000000100000000000100000000000200000000000,
000000000000100000000000000000000000500000000000,
000000000000000000000080000000000000000000000000,
300000000000000000300000000000000000000000000000,
#END
COURSE:Easy
LEVEL:3
#START
100000000000100000000000100000000000000000100000,
000000000000000000000000000000000000000000000000,
100000000000100000000000100000000000000000100000,
000000000000000000000000000000000000000000000000,
100000000000000000000000100000000000000000000000,
200000000000000000000000200000000000000000000000,
100000000000000000000000100000000000000000000000,
200000000000000000000000200000000000000000000000,
400000000000000000000000000000000000000000000000,
400000000000000000000000000000000000000000000000,
100000000000000000000000100000000000000000000000,
100000000000000000000000000000000000000000000000,
100000000000000000000000100000000000000000000000,
200000000000000000000000200000000000000000000000,
100000000000000000000000100000000000000000000000,
200000000000000000000000200000000000000000000000,
300000000000000000000000000000000000000000000000,
300000000000000000000000000000000000000000000000,
200000000000000000000000200000000000000000000000,
#BPMCHANGE 123.47
300000000000000000000000000000000000000000000000,
#BPMCHANGE 124
100000000000100000000000100000000000000000000000,
100000000000000000000000000000000000000000000000,
100000000000100000000000100000000000000000000000,
100000000000000000000000000000000000000000000000,
100000000000100000000000100000000000000000000000,
100000000000000000000000000000000000000000000000,
100000000000100000000000100000000000000000000000,
100000000000000000000000000000000000000000000000,
200000000000200000000000200000000000000000000000,
200000000000000000000000000000000000000000000000,
200000000000200000000000200000000000000000000000,
200000000000000000000000000000000000000000000000,
200000000000200000000000200000000000000000000000,
200000000000000000000000000000000000000000000000,
300000000000300000000000300000000000000000300000,
000000000000000000300000000000000000000000000000,
100000000000000000000000000000000000000000000000,
100000000000000000000000000000000000000000000000,
100000000000000000000000000000000000000000000000,
#BPMCHANGE 123.5
100000000000000000000000000000000000000000000000,
#BPMCHANGE 124
100000000000100000000000100000000000000000000000,
100000000000000000000000000000000000000000000000,
#BPMCHANGE 124.5
100000000000100000000000100000000000000000000000,
#BPMCHANGE 124
100000000000000000000000000000000000000000000000,
100000000000100000000000100000000000000000000000,
100000000000100000000000100000000000000000000000,
100000000000100000000000100000000000000000000000,
100000000000000000000000000000000000000000000000,
#GOGOSTART
200000000000200000000000200000000000000000000000,
100000000000100000000000100000000000000000000000,
200000000000200000000000200000000000000000000000,
100000000000100000000000100000000000000000000000,
200000000000200000000000200000000000000000000000,
100000000000100000000000100000000000000000000000,
100000000000100000000000100000000000100000000000,
#BPMCHANGE 123.75
500000000000000000000000000080000000000000000000,
#GOGOEND
#BPMCHANGE 124
000000000000100000000000100000000000000000000000,
100000000000100000000000000000000000100000000000,
000000000000100000000000100000000000000000000000,
100000000000000000000000100000000000100000000000,
000000000000100000000000100000000000000000000000,
100000000000000000000000100000000000100000000000,
000000000000100000000000000000000000500000000000,
000000000000000000000080000000000000000000000000,
300000000000000000300000000000000000000000000000,
#END