372 lines
8.8 KiB
Plaintext
372 lines
8.8 KiB
Plaintext
//TJADB Project
|
|
TITLE:Nan Ren KTV
|
|
TITLEZH:男人KTV
|
|
SUBTITLE:--Tiger Hu
|
|
BPM:72
|
|
WAVE:Nan Ren KTV.ogg
|
|
OFFSET:-6.187
|
|
DEMOSTART:67.037
|
|
|
|
COURSE:Oni
|
|
LEVEL:5
|
|
BALLOON:20,30
|
|
SCOREINIT:1350
|
|
SCOREDIFF:330
|
|
|
|
|
|
#START
|
|
|
|
|
|
200000000000000000000000000000000000000000000000,
|
|
#MEASURE 2/4
|
|
200000000000200000200000,
|
|
#MEASURE 4/4
|
|
200000000000000000200000000000000000000000000000,
|
|
100000000000200000100100100000100000200000100000,
|
|
100000000000200000000000100100200000200000000000,
|
|
100000000000200000100100100000100000200000100000,
|
|
100000000000200000100100200000100000200000100000,
|
|
100000000000200000100100100000100000200000100000,
|
|
100000000000200000100000100200100000200000100000,
|
|
100000000000200000100000100000000000200000100000,
|
|
100000200200100100100000000000000000100000100000,
|
|
100000000000200000100100100000100000200000100000,
|
|
100000000000200000000100100200100000200000100000,
|
|
100000000000200000100100100000100000200000100000,
|
|
100000500000000000000000000008000000100000100000,
|
|
100100000200000100100000100000100000200000100000,
|
|
300000000300000000600000000000000008000000100100,
|
|
100000100000200000100100100000100000200000100000,
|
|
500000000000000008000000000000000000300000300000,
|
|
|
|
#GOGOSTART
|
|
300000100100200000100100100200100000200000100000,
|
|
100000100100200000100100100200100000200000000000,
|
|
100000100100200000100100100000100000200000100000,
|
|
000000500000000000000000000008000000100000100000,
|
|
#BPMCHANGE 71.8
|
|
#SCROLL 1.00278551532
|
|
100000000000200000100100200000100000200000000100,
|
|
#BPMCHANGE 72
|
|
#SCROLL 1
|
|
100000100000200000100100100000100000200000100000,
|
|
100000100100200000100000200000100000200000100100,
|
|
100000200200100100000100000000000000100000100000,
|
|
|
|
#GOGOEND
|
|
#BPMCHANGE 71.5
|
|
#SCROLL 1.00699300699
|
|
100000000000200000000000000000000000200000000000,
|
|
#BPMCHANGE 72.2
|
|
#SCROLL 0.99722991689
|
|
100000000000200000000000000000000000200000000000,
|
|
#BPMCHANGE 66
|
|
#SCROLL 1.09090909091
|
|
101010
|
|
#BPMCHANGE 60
|
|
#SCROLL 1.2
|
|
11,
|
|
#BPMCHANGE 61
|
|
#SCROLL 1.18032786885
|
|
0700,
|
|
#BPMCHANGE 72
|
|
#SCROLL 1
|
|
8
|
|
#BPMCHANGE 76
|
|
#SCROLL 0.94736842105
|
|
0
|
|
#BPMCHANGE 70
|
|
#SCROLL 1.02857142857
|
|
00,
|
|
1202,
|
|
#MEASURE 5/4
|
|
#BPMCHANGE 64.3
|
|
#SCROLL 1.11975116641
|
|
1
|
|
2
|
|
#BPMCHANGE 54
|
|
#SCROLL 1.33333333333
|
|
2
|
|
#BPMCHANGE 55
|
|
#SCROLL 1.30909090909
|
|
2
|
|
0,
|
|
#BPMCHANGE 52.3
|
|
#SCROLL 1.37667304015
|
|
700000000000000000000000000000000000000000000008,
|
|
|
|
|
|
|
|
#END
|
|
|
|
|
|
COURSE:Hard
|
|
LEVEL:4
|
|
BALLOON:12,16
|
|
|
|
|
|
#START
|
|
|
|
|
|
200000000000000000000000000000000000000000000000,
|
|
#MEASURE 2/4
|
|
200000000000200000200000,
|
|
#MEASURE 4/4
|
|
200000000000000000200000000000000000000000000000,
|
|
100000000000200000100100100000100000200000000000,
|
|
100000000000200000000000000000000000000000000000,
|
|
100000000000200000100100100000100000200000000000,
|
|
100000000000200000000000000000000000000000000000,
|
|
100000000000200000100100100000000000200000100000,
|
|
100000000000100000000000100000000000000000100000,
|
|
100000000000200000100000100000000000200000000000,
|
|
300000000300000000300000000000000000100000100000,
|
|
100000000000200000100100100000000000200000000000,
|
|
100000000000200000000000100100100000200000000000,
|
|
100000000000200000100100100000100000200000000000,
|
|
500000000000000000000000000080000000000000000000,
|
|
100000000000200000100000100000000000200000000000,
|
|
300000300000000000600000000000000080000000000000,
|
|
100000100000200000100100100000100000200000000000,
|
|
500000000000000000000000000080000000000000000000,
|
|
|
|
#GOGOSTART
|
|
300000100100200000100000100000100000200000100000,
|
|
100000100100200000100000100000100000200000000000,
|
|
100000100100200000100000100000100000200000100000,
|
|
500000000000000000000000000080000000000000000000,
|
|
#BPMCHANGE 71.8
|
|
#SCROLL 1.00278551532
|
|
100000000000200000100100200000100000200000000000,
|
|
#BPMCHANGE 72
|
|
#SCROLL 1
|
|
100000100000200000100100100000000000200000000000,
|
|
100000100100200000000000100000100100200000000000,
|
|
100000100100200000100000100000000000100000100000,
|
|
|
|
#GOGOEND
|
|
#BPMCHANGE 71.5
|
|
#SCROLL 1.00699300699
|
|
100000000000200000000000000000000000200000000000,
|
|
#BPMCHANGE 72.2
|
|
#SCROLL 0.99722991689
|
|
100000000000200000000000000000000000200000000000,
|
|
#BPMCHANGE 66
|
|
#SCROLL 1.09090909091
|
|
101010
|
|
#BPMCHANGE 60
|
|
#SCROLL 1.2
|
|
10,
|
|
#BPMCHANGE 61
|
|
#SCROLL 1.18032786885
|
|
0700,
|
|
#BPMCHANGE 72
|
|
#SCROLL 1
|
|
8
|
|
#BPMCHANGE 76
|
|
#SCROLL 0.94736842105
|
|
0
|
|
#BPMCHANGE 70
|
|
#SCROLL 1.02857142857
|
|
00,
|
|
1202,
|
|
#MEASURE 5/4
|
|
#BPMCHANGE 64.3
|
|
#SCROLL 1.11975116641
|
|
1
|
|
2
|
|
#BPMCHANGE 54
|
|
#SCROLL 1.33333333333
|
|
0
|
|
#BPMCHANGE 55
|
|
#SCROLL 1.30909090909
|
|
0
|
|
0,
|
|
#BPMCHANGE 52.3
|
|
#SCROLL 1.37667304015
|
|
700000000000000000000000000000000000000000000008,
|
|
|
|
|
|
#END
|
|
|
|
|
|
COURSE:Normal
|
|
LEVEL:3
|
|
BALLOON:10,14
|
|
|
|
|
|
#START
|
|
|
|
|
|
200000000000000000000000000000000000000000000000,
|
|
#MEASURE 2/4
|
|
200000000000000000000000,
|
|
#MEASURE 4/4
|
|
200000000000000000000000000000000000000000000000,
|
|
100000000000200000000000100000100000200000000000,
|
|
100000000000200000000000000000000000000000000000,
|
|
100000000000200000000000100000100000200000000000,
|
|
100000000000200000000000000000000000000000000000,
|
|
100000000000200000000000100000000000200000000000,
|
|
100000000000100000000000100000000000000000000000,
|
|
100000000000200000000000100000000000200000000000,
|
|
300000000300000000300000000000000000000000000000,
|
|
100000000000200000100000100000000000200000000000,
|
|
100000000000200000000000000000000000000000000000,
|
|
100000000000200000100000100000000000200000000000,
|
|
500000000000000000000000000080000000000000000000,
|
|
100000000000200000100000000000000000200000000000,
|
|
300000300000000000300000000000000000000000000000,
|
|
100000000000200000000000100000100000200000000000,
|
|
500000000000000000000000000080000000000000000000,
|
|
|
|
#GOGOSTART
|
|
300000000000100000100000100000000000100000100000,
|
|
100000000000200000000000100000000000200000000000,
|
|
100000000000100000100000100000000000100000100000,
|
|
500000000000000000000000000080000000000000000000,
|
|
#BPMCHANGE 71.8
|
|
#SCROLL 1.00278551532
|
|
100000000000200000100000100000000000200000000000,
|
|
#BPMCHANGE 72
|
|
#SCROLL 1
|
|
100000000000200000100000100000000000000000000000,
|
|
100000000000200000000000100000000000200000000000,
|
|
100000000000200000000000100000000000000000000000,
|
|
|
|
#GOGOEND
|
|
#BPMCHANGE 71.5
|
|
#SCROLL 1.00699300699
|
|
200000000000000000000000000000000000200000000000,
|
|
#BPMCHANGE 72.2
|
|
#SCROLL 0.99722991689
|
|
200000000000000000000000000000000000000000000000,
|
|
#BPMCHANGE 66
|
|
#SCROLL 1.09090909091
|
|
101010
|
|
#BPMCHANGE 60
|
|
#SCROLL 1.2
|
|
10,
|
|
#BPMCHANGE 61
|
|
#SCROLL 1.18032786885
|
|
0700,
|
|
#BPMCHANGE 72
|
|
#SCROLL 1
|
|
8
|
|
#BPMCHANGE 76
|
|
#SCROLL 0.94736842105
|
|
0
|
|
#BPMCHANGE 70
|
|
#SCROLL 1.02857142857
|
|
00,
|
|
1,
|
|
#MEASURE 5/4
|
|
#BPMCHANGE 64.3
|
|
#SCROLL 1.11975116641
|
|
1
|
|
2
|
|
#BPMCHANGE 54
|
|
#SCROLL 1.33333333333
|
|
0
|
|
#BPMCHANGE 55
|
|
#SCROLL 1.30909090909
|
|
0
|
|
0,
|
|
#BPMCHANGE 52.3
|
|
#SCROLL 1.37667304015
|
|
700000000000000000000000000000000000000000000008,
|
|
|
|
|
|
#END
|
|
|
|
|
|
COURSE:Easy
|
|
LEVEL:3
|
|
BALLOON:8,12
|
|
|
|
|
|
#START
|
|
|
|
|
|
200000000000000000000000000000000000000000000000,
|
|
#MEASURE 2/4
|
|
200000000000000000000000,
|
|
#MEASURE 4/4
|
|
200000000000000000000000000000000000000000000000,
|
|
100000000000000000000000100000000000000000000000,
|
|
200000000000000000000000000000000000000000000000,
|
|
100000000000000000000000100000000000000000000000,
|
|
200000000000000000000000000000000000000000000000,
|
|
100000000000200000000000100000000000000000000000,
|
|
100000000000100000000000100000000000000000000000,
|
|
100000000000200000000000100000000000000000000000,
|
|
300000000000000000300000000000000000000000000000,
|
|
100000000000200000000000100000000000200000000000,
|
|
100000000000000000000000000000000000000000000000,
|
|
100000000000200000000000100000000000200000000000,
|
|
500000000000000000000000000080000000000000000000,
|
|
100000000000200000000000000000000000100000000000,
|
|
300000000000000000300000000000000000000000000000,
|
|
100000000000200000000000100000000000200000000000,
|
|
500000000000000000000000000080000000000000000000,
|
|
|
|
#GOGOSTART
|
|
300000000000000000000000100000000000100000000000,
|
|
100000000000000000000000000000000000000000000000,
|
|
100000000000000000000000100000000000100000000000,
|
|
500000000000000000000000000080000000000000000000,
|
|
#BPMCHANGE 71.8
|
|
#SCROLL 1.00278551532
|
|
100000000000200000000000100000000000000000000000,
|
|
#BPMCHANGE 72
|
|
#SCROLL 1
|
|
100000000000200000000000100000000000000000000000,
|
|
100000000000100000000000100000000000000000000000,
|
|
200000000000200000000000200000000000000000000000,
|
|
|
|
#GOGOEND
|
|
#BPMCHANGE 71.5
|
|
#SCROLL 1.00699300699
|
|
200000000000000000000000000000000000000000000000,
|
|
#BPMCHANGE 72.2
|
|
#SCROLL 0.99722991689
|
|
200000000000000000000000000000000000000000000000,
|
|
#BPMCHANGE 66
|
|
#SCROLL 1.09090909091
|
|
101010
|
|
#BPMCHANGE 60
|
|
#SCROLL 1.2
|
|
10,
|
|
#BPMCHANGE 61
|
|
#SCROLL 1.18032786885
|
|
0700,
|
|
#BPMCHANGE 72
|
|
#SCROLL 1
|
|
8
|
|
#BPMCHANGE 76
|
|
#SCROLL 0.94736842105
|
|
0
|
|
#BPMCHANGE 70
|
|
#SCROLL 1.02857142857
|
|
00,
|
|
1,
|
|
#MEASURE 5/4
|
|
#BPMCHANGE 64.3
|
|
#SCROLL 1.11975116641
|
|
1
|
|
2
|
|
#BPMCHANGE 54
|
|
#SCROLL 1.33333333333
|
|
0
|
|
#BPMCHANGE 55
|
|
#SCROLL 1.30909090909
|
|
0
|
|
0,
|
|
#BPMCHANGE 52.3
|
|
#SCROLL 1.37667304015
|
|
700000000000000000000000000000000000000000000008,
|
|
|
|
|
|
#END
|
|
|