Files
ESE/01 Pop/Netsujou no Spectrum/Netsujou no Spectrum.tja
T
2023-06-15 19:15:39 -05:00

335 lines
4.0 KiB
Plaintext

//TJADB Project
TITLE:Netsujou no Spectrum
TITLEJA:熱情のスペクトラム
SUBTITLE:--Ikimono-gakari/The Seven Deadly Sins
BPM:160
WAVE:Netsujou no Spectrum.ogg
OFFSET:-1.654
DEMOSTART:58.654
COURSE:Oni
LEVEL:8
SCOREINIT:670
SCOREDIFF:185
#START
2222,
2022,
2222,
20000022,
12221022,
12121022,
1212,
33030300,
10101212,
10101212,
1000112010001120,
1000112010222222,
1011202010001020,
3000300040002210,
1022111122221111,
20004400,
#GOGOSTART
3000221120100040,
0010202211200040,
0010221120100040,
04040400,
#GOGOEND
10201121,
01211122,
10211021,
1000201010222010,
0011201010102010,
0011201010102020,
1000201010102011,
1011221040300020,
10211122,
10211121,
10201122,
3000300030002210,
1000201110102020,
1000201110102211,
2010201120102011,
2010201122112250,
000000000000000000000000000000000000000008000000,
1100001100000000,
#GOGOSTART
1020112010221020,
1020112010221020,
1020112010201120,
1020112012102222,
1011202010001022,
1120102030002011,
2000201120102011,
2211221120104000,
1020112010221020,
1020112010221020,
1020112010201120,
1020112012102222,
1011202010001020,
3000300040002210,
1022111122221111,
20004400,
3000221120100040,
0010202211200040,
0010221120100040,
04040400,
3,
#GOGOEND
#END
COURSE:Hard
LEVEL:5
SCOREINIT:710
SCOREDIFF:220
#START
2222,
2022,
2222,
20000022,
20202022,
2220,
500000000000000000000000000000000008000000000000,
33030300,
10101212,
10101212,
1000222010002220,
500000000000000000000008000000000000100100100000,
10221022,
3334,
500000000000000000000000000000000000000008000000,
30004400,
#GOGOSTART
3000111020200040,
0000222010100030,
0000111020200040,
04040400,
#GOGOEND
10101011,
01101010,
10111000,
00000110,
10101011,
01101010,
10211021,
11214302,
10211122,
10201121,
10201122,
30303021,
10211122,
10201121,
20212121,
20212125,
000000000000000000000000000000000000000008000000,
1100001100000000,
#GOGOSTART
10101212,
10101212,
1000222010002220,
500000000000000000000008000000000000100100100000,
10221022,
30303021,
10212121,
500000000000000000000000000008000000400000000000,
10101212,
10101212,
1000222010002220,
500000000000000000000008000000000000100100100000,
10211012,
3334,
500000000000000000000000000000000000000008000000,
30004400,
3000111020200040,
0000222010100030,
0000111020200040,
04040400,
3,
#GOGOEND
#END
COURSE:Normal
LEVEL:4
BALLOON:15,13
SCOREINIT:980
SCOREDIFF:398
#START
,
,
,
,
22,
2220,
7,
08,
1111,
1022,
2222,
20000011,
1110,
3334,
500000000000000000000000000000000000000000000008,
00002200,
#GOGOSTART
30001103,
00001103,
00001103,
03030300,
#GOGOEND
1011,
1011,
500000000000000000000000000000000000000008000000,
,
1011,
1011,
500000000000000000000000000000000000000008000000,
,
10001011,
1001,
1212,
3330,
10002022,
2001,
2121,
2190,
00000080,
,
#GOGOSTART
1111,
1012,
1212,
10000011,
1110,
3330,
2121,
500000000000000000000000000000000008000000000000,
1111,
1012,
1212,
10000022,
2220,
3334,
500000000000000000000000000000000000000000000008,
00002200,
30001103,
00001103,
00001103,
03030300,
3,
#GOGOEND
#END
COURSE:Easy
LEVEL:3
BALLOON:11,11
SCOREINIT:980
SCOREDIFF:655
#START
,
,
,
,
11,
11,
7,
08,
11,
1011,
1011,
1,
11,
3330,
500000000000000000000000000000000000000000000008,
,
#GOGOSTART
30001003,
00001003,
00001006,
000000000000000000000000000008000000000000000000,
#GOGOEND
11,
11,
500000000000000000000000000000000000000008000000,
,
11,
11,
500000000000000000000000000000000000000008000000,
,
11,
2,
11,
3330,
11,
2,
11,
19,
00000080,
,
#GOGOSTART
31,
1011,
1011,
1,
11,
3330,
22,
500000000000000000000000000008000000000000000000,
31,
1011,
1011,
1,
11,
3330,
500000000000000000000000000000000000000000000008,
,
30001003,
00001003,
00001006,
000000000000000000000000000008000000000000000000,
3,
#GOGOEND
#END