Files
ESE/01 Pop/Odo/Odo.tja
T

507 lines
12 KiB
Plaintext
Raw Blame History

This file contains ambiguous Unicode characters
This file contains Unicode characters that might be confused with other characters. If you think that this is intentional, you can safely ignore this warning. Use the Escape button to reveal them.
//TJADB Project
TITLE:Odo
TITLEJA:踊
SUBTITLE:--Ado
SUBTITLEJA:Ado
BPM:128
WAVE:Odo.ogg
OFFSET:-1.161
DEMOSTART:73.349
BGMOVIE:Odo.mp4
COURSE:Oni
LEVEL:8
BALLOON:3,3,3,3,4,3,3,3,3,18
SCOREINIT:750
SCOREDIFF:188
#START
#LYRIC Hanpa nara K.O.
#BARLINEOFF
#MEASURE 2/4
,
#BARLINEON
#MEASURE 4/4
1020020
#LYRIC Fuwa
1,
2
#LYRIC Fuwa fuwa
12
#LYRIC Shitai nara douzo
11211,
10200200,
#LYRIC Kaien junbi shichaou ka
1010201120100020,
#LYRIC Naitemo
3022
#LYRIC Naitemo warattemo
3022,
#LYRIC Naitemo warattemo aishite
3022
#LYRIC Naitemo warattemo aishite ne
30
#LYRIC Hora say no teion hibikaser
12,
10211121,
21101111,
#LYRIC Hora say no teion hibikasero
78
#LYRIC Hora say no teion hibikaseroo
78
#LYRIC Hora say no teion hibikaserooo
78
#LYRIC Hora say no teion hibikaseroooo
78,
#LYRIC
300000200000200000000000100000202020200000100000,
#LYRIC Nandaka natte tsumannai koto mo aru deshou
1011201210120020,
1021101210120020,
#LYRIC Ronrii ronri no nooto handii honki dassou
1010202010120010,
1010202210120020,
#LYRIC Yan nacchate doro ni bad go hatto darou ga
1011201210120020,
1021101210120020,
0
#LYRIC Oborete ochite sorosoro ikka
1110222,
000700000800101101200100,
#LYRIC Motto ganbatte agaru made motto ganbatte
100000100200000000100000200000200010200010200010,
1000001002000000001000002000002000
#LYRIC Tsunagarou hitori yori futari fuetara anshin shinpai nai ya
10200020100000,
1012002010120020,
1122102010102110,
#LYRIC Alright makasete don’t mind
101012111010
#LYRIC Nami ari nandai minna de nokkacchaeba
1211,
100000200000100000200100100000100200100000001010,
2000
#LYRIC Huh, angai sakutto icchaisou
401010012010,
1140
#LYRIC Hanpa nara K.O.
1121,
1020020
#LYRIC Fuwa
1,
2
#LYRIC Fuwa fuwa
12
#LYRIC Shitai nara douzo
11211,
10200200,
#LYRIC Kaien junbi shichaou ka
1010201120102010,
#LYRIC Naitemo
3022
#LYRIC Naitemo warattemo
3022,
#LYRIC Naitemo warattemo aishite
3022
#LYRIC Naitemo warattemo aishite ne
30
#LYRIC Hora say no teion hibikaser
12,
10211121,
21101111,
#LYRIC Hora say no teion hibikasero
#SCROLL 1.2
1
#LYRIC Hora say no teion hibikaseroo
#SCROLL 1.4
1
#LYRIC Hora say no teion hibikaserooo
#SCROLL 1.6
1
#LYRIC Hora say no teion hibikaseroooo
#SCROLL 1.8
1,
#LYRIC Hora say no teion hibikaserooooo
#SCROLL 2
78
#LYRIC Hora say no teion hibikaseroooooo
#SCROLL 2.2
78
#LYRIC Hora say no teion hibikaserooooooo
#SCROLL 2.4
78
#LYRIC Hora say no teion hibikaseroooooooo
#SCROLL 2.6
78,
#LYRIC Hora say no teion hibikaserooooooooo
#SCROLL 2.8
7
#LYRIC Hora say no teion hibikaseroooooooooo
0
#LYRIC Hora say no teion hibikaserooooooooooo
0
#LYRIC Hora say no teion hibikaseroooooooooooo
0
#LYRIC Hora say no teion hibikaserooooooooooooo
0
#LYRIC Hora say no teion hibikaseroooooooooooooo
0
#LYRIC Yeah,
08,
#SCROLL 1
3000
#LYRIC Yeah, koyoi wa anten party
121120103040,
#GOGOSTART
#LYRIC Ooh-
10
#LYRIC Ooh-woah-
20
#LYRIC Ooh-woah-oh-
2012
#LYRIC Ooh-woah-oh-ooh-
102
#LYRIC Ooh-woah-oh-ooh-oh
10122,
10
#LYRIC Ooh-
20
#LYRIC Ooh-woah-
2012
#LYRIC Ooh-woah-ooh-
102
#LYRIC Ooh-woah-ooh-oh
1012
#LYRIC O
0,
#LYRIC Odo
1
#LYRIC Odori
1
#LYRIC Odorida
2
#LYRIC Odoridase,
20
#LYRIC Odoridase, o
0
#LYRIC Odoridase, odo
1
#LYRIC Odoridase, odori
1
#LYRIC Odoridase, odorida
2
#LYRIC Odoridase, odoridase
200,
#LYRIC Ko
1
#LYRIC Kodo
1
#LYRIC Kodoku
2
#LYRIC Kodoku wa
2
#LYRIC Kodoku wa sa
10
#LYRIC Kodoku wa sakkin
20
#LYRIC Kodoku wa sakkin ma
10
#LYRIC Kodoku wa sakkin manin
21
#LYRIC Kodoku wa sakkin manin or
11
#LYRIC Kodoku wa sakkin manin orei
20,
#LYRIC Ooh-
10
#LYRIC Ooh-woah-
20
#LYRIC Ooh-woah-oh-
2012
#LYRIC Ooh-woah-oh-ooh-
102
#LYRIC Ooh-woah-oh-ooh-oh
10122,
10
#LYRIC Ooh-
20
#LYRIC Ooh-woah-
2012
#LYRIC Ooh-woah-ooh-
102
#LYRIC Ooh-woah-ooh-oh
1012
#LYRIC I
0,
#LYRIC Ita
2
#LYRIC Itami
2
#LYRIC Itami ma
1
#LYRIC Itami made
100
#LYRIC Itami made o
1
#LYRIC Itami made oshe
1
#LYRIC Itami made oshea
2
#LYRIC Itami made oshea de
200,
#LYRIC Ko
100
#LYRIC Koko
100
#LYRIC Kokora
200
#LYRIC Kokora de
200
#LYRIC Kokora de bye
100000
#LYRIC Kokora de byebye
100000
#LYRIC Kokora de byebye let
200000
#LYRIC Kokora de byebye let go
202020200000200000,
#GOGOEND
#LYRIC
3000122212012220,
1221012102111200,
1022121110201020,
1022121110201000,
2000122201211210,
2000122201211210,
1022121110201020,
100000200200100200100100100000101010200000200000,
#END
COURSE:Hard
LEVEL:5
BALLOON:14,12,6,2,2,2,2,14
SCOREINIT:810
SCOREDIFF:223
#START
100000000000200000000000000000200000000000100000,
200000100000200000000000100000200000100000000000,
100000000000200000000000000000200000000000000000,
100000100000200000200000100000100000000000200000,
300000000000200000200000300000000000200000200000,
300000000000200000200000300000000000200000000000,
100000000000200000000000100000100000200000100000,
100000000000100000000000100000100000100000100000,
9,
8,
100000100100100000000000100000100000000000100000,
100000100000100000000000100000100000000000200000,
100000100000100000200000100000100000000000100000,
100000100000100000200000100000100000000000200000,
100000100000100000000000100000100000000000100000,
100000100000100000000000100000100000000000200000,
000000100000100000100000000000100000100000100000,
700000000000000000000000000000000000800000000000,
100000100100000000100000100000000000200000000000,
100000100100000000100000100000000000200000000000,
100000100100000000100000100000100100000000100000,
100000100000200000200000100000100000100000000000,
100000100000100100100000100000100000100100100000,
100000100000200000100000200000200000200000000200,
200000000000000000100000100000000100100000000000,
70081120,
100000000000200000000000000000200000000000100000,
200000100000200000000000100000200000100000000000,
100000000000200000000000000000200000000000000000,
100000100000200000200000100000100000000000200000,
300000000000200000200000300000000000200000200000,
300000000000200000200000300000000000200000000000,
100000000000200000000000100000100000200000100000,
100000000000100000000000100000100000100000100000,
100000000000100000000000100000000000100000000000,
78787878,
9,
8,
#GOGOSTART
100000100000200000000000100000200000000000000000,
100000100000200000000000100000000000200000000000,
100010001000100000000000100010001000100000000000,
100000100000200000200000100000100000200000000000,
100000100000200000000000100000200000000000000000,
100000100000200000000000100000000000200000000000,
200020002000200000000000200020002000200000000000,
100000100000200000200000100000100000000000000000,
#GOGOEND
300000000000100000200000100000000100100000200000,
100000200200000200200000100000100000200000000000,
100000100100000100100000100000100000200000200000,
100000100100000100100000100000100000200000000000,
100000000000100000100100000000100000200000000000,
100000000000100000100100000000200000200000000000,
100000100100000100100000100000100000200000200000,
500000000000000000000000000000000000000008000000,
#END
COURSE:Normal
LEVEL:3
BALLOON:10,8,6,2,2,2,2,10
SCOREINIT:900
SCOREDIFF:305
#START
100000000000200000000000000000000000000000000000,
200000000000200000000000000000000000100000000000,
100000000000200000000000000000000000000000000000,
100000000000100000000000100000000000000000000000,
300000000000000000000000300000000000000000000000,
300000000000000000000000300000000000000000000000,
100000000000100000000000200000000000100000000000,
100000000000100000000000100000100000100000000000,
700000000000000000000000000000000000000000000080,
9,
8,
100000000000100000000000100000100000000000000000,
100000000000100000000000100000000000000000000000,
100000000000100000000000100000100000000000000000,
100000000000100000000000200000200000000000000000,
100000000000100000000000100000100000000000000000,
100000000000100000000000100000100000000000000000,
000000100000100000000000000000100000100000000000,
700000000000000000000000000000000000800000000000,
100000100000000000000000100000000000200000000000,
100000100000000000000000100000000000200000000000,
100000100000000000000000100000100000000000000000,
100000000000100000000000100000100000100000000000,
100000000000100000000000200000000000100000000000,
100000000000100000000000200000000000200000000000,
200000000000000000100000100000000000100000000000,
700000000000000000000000800000000000000000000000,
100000000000200000000000000000000000000000000000,
200000000000200000000000000000000000100000000000,
100000000000200000000000000000000000000000000000,
100000000000100000000000100000000000000000000000,
300000000000000000000000300000000000000000000000,
300000000000000000000000300000000000000000000000,
100000000000100000000000200000000000100000000000,
100000000000100000000000100000100000100000000000,
100000000000100000000000100000000000100000000000,
78787878,
9,
8,
#GOGOSTART
100000100000100000000000100000000000000000000000,
100000100000100000000000100000000000000000000000,
100000000000200000000000100000000000200000000000,
100000100000100000000000100000100000100000000000,
100000100000100000000000100000000000000000000000,
100000100000100000000000100000000000000000000000,
200000000000100000000000200000000000100000000000,
100000100000100000000000100000000000000000000000,
#GOGOEND
300000000000200000000000100000000000200000000000,
100000000000000000000000100000100000200000000000,
100000000000000000000000100000100000100000000000,
100000000000000000000000100000100000100000000000,
100000000000200000000000100000000000200000000000,
100000000000000000000000100000200000200000000000,
100000000000000000000000100000100000100000000000,
500000000000000000000000000000000000000008000000,
#END
COURSE:Easy
LEVEL:2
BALLOON:8,10,4,8
SCOREINIT:860
SCOREDIFF:450
#START
100000000000000000000000000000000000000000000000,
200000000000200000000000000000000000000000000000,
100000000000000000000000000000000000000000000000,
100000000000000000000000100000000000000000000000,
300000000000000000000000300000000000000000000000,
300000000000000000000000300000000000000000000000,
100000000000000000000000200000000000000000000000,
100000000000000000000000100000000000100000000000,
9,
8,
100000000000000000000000100000000000000000000000,
100000000000100000000000100000000000000000000000,
100000000000000000000000100000000000000000000000,
200000000000000000000000200000000000000000000000,
100000000000000000000000100000000000000000000000,
100000000000100000000000100000000000000000000000,
000000700000000000000000000000000000000000000000,
000000800000000000000000000000000000000000000000,
100000000000000000000000100000000000100000000000,
100000000000000000000000100000000000100000000000,
100000000000000000000000100000000000000000000000,
100000000000100000000000100000000000100000000000,
100000000000000000000000200000000000000000000000,
100000000000000000000000200000000000200000000000,
200000000000000000000000100000000000000000000000,
700000000000000000000000800000000000000000000000,
100000000000000000000000000000000000000000000000,
200000000000200000000000000000000000000000000000,
100000000000000000000000000000000000000000000000,
100000000000000000000000100000000000000000000000,
300000000000000000000000300000000000000000000000,
300000000000000000000000300000000000000000000000,
100000000000000000000000200000000000000000000000,
100000000000000000000000100000000000100000000000,
100000000000000000000000100000000000000000000000,
100000000000000000000000100000000000000000000000,
9,
8,
#GOGOSTART
100000000000100000000000100000000000000000000000,
100000000000100000000000100000000000000000000000,
100000000000000000000000100000000000000000000000,
100000000000100000000000100000000000000000000000,
100000000000100000000000100000000000000000000000,
100000000000100000000000100000000000000000000000,
200000000000000000000000200000000000000000000000,
100000000000100000000000100000000000000000000000,
#GOGOEND
300000000000000000000000100000000000200000000000,
100000000000000000000000200000000000200000000000,
100000000000000000000000100000000000100000000000,
100000000000000000000000100000000000100000000000,
100000000000000000000000100000000000200000000000,
100000000000000000000000200000000000200000000000,
100000000000000000000000100000000000100000000000,
500000000000000000000000000000000000000008000000,
#END