Files
ESE/01 Pop/Osakana Tengoku/Osakana Tengoku.tja
T
2023-06-15 19:15:39 -05:00

260 lines
10 KiB
Plaintext

//TJADB Project
TITLE:Osakana Tengoku
TITLEJA:おさかな天国
SUBTITLE:--Toshihiko Shibaya feat. Hiromi Shibaya
BPM:141
WAVE:Osakana Tengoku.ogg
OFFSET:-2.009
DEMOSTART:44.349
COURSE:Oni
LEVEL:5
BALLOON:12
#START
000000200000200000200000000000200000200000000000,
100000100000000000100000100000100000000000000000,
000000200000200000200000000000200000200000000000,
100000100000000000100000100000100000000000000000,
000000200000200000200000000000200000200000000000,
100000100000000000100000100000100000000000000000,
000000100000000000300000000000000000000000000000,
100000100000100000100100100000100100200000200000,
100000100000100000100000100000000000200000000000,
100000100000100000100100100000100100200000200000,
100000100000100000100000100000000000200000000000,
100000100000100000100100100000100100200000200000,
100000100000100000100000100000000000100000100000,
100000100100100000100100100000000000200000200000,
000000100000100000100000100000100000000000100000,
100000000000000000100000100000000000200000100000,
000000100000100000100000100000100000100000100000,
100000100100200000000000100000100100200000000000,
100000100100200000000000100000100100200000000000,
100000100000000000200000100000200000100000200000,
000000100000100000200000100000000000200000200000,
100000100100200000200000100000100100200000200000,
100000100100200000200000100000100100200000200000,
100000000000100000100000000000100000100000200200,
200000100000000000100000000000100000100000000000,
100000100100100000100100100000100100100000100100,
100000000000200000000000200000000000100000100000,
100000100100100000200000100000100100100000200000,
500000000000000000000000000000000008000000000000,
100000100100100000100100100000100100100000100100,
100000000000200000000000200000000000100000100000,
100000100100100000200000100000100100100000200000,
100000000000100000100000000000100000100000000000,
100000100100200000100100200000100100200000100100,
200000000000200000000000200000000000100000100000,
100000100100100000200000100000100100100000200000,
500000000000000000000000000000000008000000000000,
100000100100200000100100200000100100200000100100,
200000000000200000000000200000000000100000100000,
100000100100100000200000100000100100100000200000,
100000100000100000100000100000100000100000100000,
100000000000200000000000000000000000200000000000,
000000000000100000100000000000100000100000000000,
000000000000200000000000000000000000200000000000,
000000000000100000100000000000100000100000000000,
100000100000100000000000100000100000000000100000,
700000000000000000000000000000000000000000800000,
400000000000000000000000000000000000000000100000,
000000100100100000100100100000000000300000000000,
#END
COURSE:Hard
LEVEL:4
BALLOON:12
#START
000000000000200000000000000000200000200000000000,
100000100000000000100000100000100000000000000000,
000000000000200000000000000000200000200000000000,
100000100000000000100000100000100000000000000000,
000000200000000000000000000000000000200000000000,
100000100000000000100000100000100000000000000000,
000000100000000000300000000000000000000000000000,
100000100000100000100100100000100100200000200000,
100000100000100000100000100000000000200000000000,
100000100000100000100100100000100100200000200000,
100000100000100000100000100000000000200000000000,
100000100000100000100100100000100100200000200000,
100000100000100000100000100000000000100000100000,
100000100100100000100100100000000000200000200000,
000000100000100000100000100000100000000000100000,
100000000000000000100000100000000000200000100000,
000000100000100000100000100000100000100000100000,
100000100100200000000000100000100100200000000000,
100000100100200000000000100000100100200000000000,
100000100000000000200000100000200000100000200000,
000000000000100000200000000000100000200000200000,
100000100100200000000000100000100100200000000000,
100000100100200000000000100000100100200000000000,
100000000000100000100000000000100000100000200200,
200000100000000000100000000000100000100000000000,
100000100100100000100100100000100100100000100100,
100000000000200000000000200000000000100000100000,
100000100100100000200000100000100100100000200000,
500000000000000000000000000000000800000000000000,
100000100100100000100100100000100100100000100100,
100000000000200000000000200000000000100000100000,
100000100100100000200000100000100100100000200000,
100000000000100000100000000000100000100000000000,
100000100100100000100100100000100100100000100100,
100000000000200000000000200000000000100000100000,
100000100100100000200000100000100100100000200000,
500000000000000000000000000000000800000000000000,
100000100100100000100100100000100100100000100100,
100000000000200000000000200000000000100000100000,
100000100100100000200000100000100100100000200000,
100000100000100000100000100000100000100000100000,
100000000000200000000000000000000000200000000000,
000000000000100000100000000000100000100000000000,
000000000000200000000000000000000000200000000000,
000000000000100000100000000000100000100000000000,
100000100000100000000000100000100000000000100000,
700000000000000000000000000000000000000800000000,
400000000000000000000000000000000000000000100000,
000000100100100000100100100000000000300000000000,
#END
COURSE:Normal
LEVEL:5
BALLOON:9
SCOREINIT:1150
SCOREDIFF:330
#START
000000000000200000000000000000000000200000000000,
000000000000000000000000000000000000000000000000,
000000000000200000000000000000200000200000000000,
000000000000000000000000000000000000000000000000,
000000000000200000000000000000000000200000000000,
000000000000000000000000000000000000000000000000,
000000100000000000300000000000000000000000000000,
100000000000000000100000100000000000200000000000,
100000000000000000100000100000000000200000000000,
100000000000000000100000100000000000200000000000,
100000000000000000100000100000200200200000000000,
100000000000000000100000100000000000200000000000,
100000000000000000100000100000000000200000000000,
100000000000000000100000100000000000200000000000,
100000000000000000100000100000000000200000000000,
100000000000000000100000100000000000200000100000,
000000100000100000100000100000100000100000100000,
100000000000200000200000000000000000200000100000,
100000000000200000200000000000200000100000000000,
100000000000200000200000000000000000200000100000,
100000000000200000200000100000200000100000200000,
100000000000200000200000000000000000200000100000,
100000000000200000200000000000100000100000100000,
100000000000100000100000000000100000100000000000,
000000100000000000100000000000100000100000100000,
100000000000000000100000000000000000100000000000,
000000000000100000000000100000000000000000000000,
100000000000100000000000100000100000000000100000,
500000000000000000000000000000000800000000000000,
100000000000000000100000000000000000100000000000,
000000000000100000000000100000000000000000000000,
100000000000100000000000100000100000000000100000,
100000000000100000100000000000100000100000000000,
100000000000000000100000000000000000100000000000,
000000000000100000000000100000000000000000000000,
100000000000100000000000100000100000000000100000,
500000000000000000000000000000000800000000000000,
100000000000000000100000000000000000100000000000,
000000000000100000000000100000000000000000000000,
100000000000100000000000100000100000000000100000,
100000100000100000100000100000100000100000100000,
000000000000100000000000000000000000100000000000,
000000000000100000100000000000000000100000000000,
000000000000100000000000000000000000100000000000,
000000000000100000100000000000000000100000000000,
100000000000100000000000100000100000000000100000,
700000000000000000000000000000000000000800000000,
300000000000000000000000000000000000000000100000,
000000100000100000100000100000000000300000000000,
#END
COURSE:Easy
LEVEL:1
SCOREINIT:1410
SCOREDIFF:750
#START
100000000000000000000000000000000000000000000000,
000000000000000000000000000000000000000000000000,
100000000000000000000000000000000000000000000000,
000000000000000000000000000000000000000000000000,
100000000000000000000000000000000000000000000000,
000000000000000000000000000000000000000000000000,
000000000000000000300000000000000000000000000000,
100000000000000000000000100000000000000000000000,
100000000000100000000000100000000000000000000000,
100000000000000000000000100000000000000000000000,
100000000000100000000000100000000000000000000000,
100000000000000000000000100000000000000000000000,
100000000000100000000000100000000000000000000000,
100000000000000000000000100000000000000000000000,
100000000000100000000000100000000000000000000000,
100000000000000000000000100000000000000000000000,
000000000000200000000000000000000000000000000000,
100000000000000000000000200000000000000000000000,
100000000000000000000000000000000000000000000000,
100000000000000000000000200000000000000000000000,
100000000000000000000000000000000000000000000000,
100000000000000000000000200000000000000000000000,
100000000000000000000000000000000000000000000000,
100000000000000000000000200000000000000000000000,
000000000000000000000000000000000000000000000000,
100000000000000000000000100000000000000000000000,
100000000000100000000000100000000000000000000000,
100000000000000000000000100000000000000000000000,
500000000000000000000000000000000800000000000000,
100000000000000000000000100000000000000000000000,
100000000000100000000000100000000000000000000000,
100000000000000000000000100000000000000000000000,
500000000000000000000000000000000800000000000000,
100000000000000000000000100000000000000000000000,
100000000000100000000000100000000000000000000000,
100000000000000000000000100000000000000000000000,
500000000000000000000000000000000800000000000000,
100000000000000000000000100000000000000000000000,
100000000000100000000000100000000000000000000000,
100000000000000000000000100000000000000000000000,
500000000000000000000000000000000800000000000000,
100000000000000000000000200000000000000000000000,
100000000000000000000000200000000000000000000000,
100000000000000000000000200000000000000000000000,
100000000000000000000000200000000000000000000000,
100000000000000000000000100000000000000000000000,
500000000000000000000000000000000800000000000000,
300000000000000000000000000000000000000000100000,
000000100000100000100000100000000000300000000000,
#END