Files
ESE/01 Pop/Pandora/Pandora.tja
T

361 lines
8.7 KiB
Plaintext

//TJADB Project
TITLE:Pandora
TITLEZH:潘朶拉
SUBTITLE:--Angela Chang
SUBTITLEZH:張韶涵
BPM:139.97
WAVE:Pandora.ogg
OFFSET:-2.145
DEMOSTART:50.146
COURSE:Oni
LEVEL:6
SCOREINIT:840
SCOREDIFF:210
#START
10210120,
10210120,
10210120,
500000000000000000000000000000000008000000000000,
#SECTION
#BRANCHSTART p,75,90
#N
10210120,
10210120,
3300,
3300,
10210120,
10210120,
3400,
3400,
1000101110102000,
10210120,
11022020,
10210120,
1000101110102000,
10222010,
10210121,
10210122,
10210121,
10210122,
10210121,
10210122,
1000201110102000,
1000201110102000,
1011101011102000,
03030444,
#E
10210120,
10210120,
30300120,
30300120,
10210120,
10210120,
30400120,
30400120,
1010201110102011,
10210120,
11022020,
10210120,
1010201110102011,
10222110,
10210121,
10210122,
10210121,
10210122,
10210121,
10210122,
1010201110102011,
1010201110102010,
1011201011102000,
03030444,
#M
11211121,
11211120,
30310120,
30310120,
11211121,
11211120,
30410120,
30410120,
1020202210202222,
10210120,
11022020,
10210120,
1020202210202222,
11222110,
1002201000102010,
1002201000102020,
1002201000102010,
1002201000102020,
1002201000102010,
1002201000102020,
1022202010111010,
1022202010112010,
1011201021102010,
03030444,
#GOGOSTART
#SECTION
#BRANCHSTART p,75,90
#N
10210121,
10212020,
3300,
3300,
10210121,
10212020,
3400,
3400,
10210121,
10212020,
3300,
3300,
10210121,
10212020,
3400,
3400,
#GOGOEND
,
#E
1000201000102011,
1000201022202000,
30300120,
3000301000102011,
1000201000102011,
1000201022202000,
30400120,
3000401000102011,
1000201000102011,
1000201022202000,
30300120,
3000301000102011,
1000201000102011,
1000201022202000,
30400120,
3400,
#GOGOEND
,
#M
1001201000102011,
1001201022202220,
30310121,
3000301000102011,
1001201000102011,
1001201022202220,
30410121,
3000401000102011,
1001201000102011,
1001201022202220,
30310121,
3000301000102011,
1001201000102011,
1001201022202220,
30410121,
3422,
#GOGOEND
2,
#BRANCHEND
#END
COURSE:Hard
LEVEL:4
SCOREINIT:850
SCOREDIFF:240
#START
100000000000200000100000000000100000200000000000,
100000000000200000100000000000100000200000000000,
100000000000200000100000000000100000200000000000,
500000000000000000000000000000800000000000000000,
100000100000200000100000000000100000200000000000,
100000100000200000100000000000100000200000000000,
300000000000300000000000000000000000000000000000,
300000000000300000000000000000000000000000000000,
100000100000200000100000000000100000200000000000,
100000100000200000100000000000100000200000000000,
400000000000400000000000000000000000000000000000,
400000000000400000000000000000000000000000000000,
100000100000200000200000100000100000200000000000,
100000100000200000200000100000100000100000000000,
100000100000000000200000200000000000100000000000,
100000000000200000100000000000100000200000000000,
100000100000200000200000100000100000200000000000,
100000100000200000200000100000100000100000000000,
100000000000200000100000000000100000200000000000,
100000000000200000100000000000100000200000200000,
100000000000200000100000000000100000200000100000,
100000000000200000100000000000100000200000200000,
100000000000200000100000000000100000200000100000,
100000000000200000100000000000100000200000200000,
100000100000200000200000100000100000200000000000,
100000100000200000200000100000100000100000100000,
100000000000200000100000000000100000200000000000,
000000300000000000300000000000400000400000400000,
#GOGOSTART
100000000000200000100000000000100000200000100000,
100000000000200000100000200200200000200000000000,
300000000000300000000000000000000000000000000000,
300000000000300000000000000000000000000000000000,
100000000000200000100000000000100000200000100000,
100000000000200000100000200200200000200000000000,
400000000000400000000000000000000000000000000000,
400000000000400000000000000000000000000000000000,
100000000000200000100000000000100000200000100000,
100000000000200000100000200200200000200000000000,
300000000000300000000000000000000000000000000000,
300000000000300000000000000000000000000000000000,
100000000000200000100000000000100000200000100000,
100000000000200000100000200200200000200000000000,
300000000000400000000000000000000000000000000000,
300000000000400000000000000000000000000000000000,
#GOGOEND
#END
COURSE:Normal
LEVEL:4
BALLOON:6
SCOREINIT:1290
SCOREDIFF:500
#START
100000000000200000000000000000000000200000000000,
100000000000200000000000000000000000200000000000,
100000000000200000000000000000000000200000000000,
500000000000000000000000800000000000000000000000,
100000000000200000000000000000000000200000000000,
100000000000200000000000000000000000200000000000,
300000000000300000000000000000000000000000000000,
300000000000300000000000000000000000000000000000,
100000000000200000000000000000000000200000000000,
100000000000200000000000000000000000200000000000,
400000000000400000000000000000000000000000000000,
400000000000400000000000000000000000000000000000,
100000000000200000000000100000000000000000000000,
100000000000200000000000100000000000000000000000,
100000000000000000000000200000000000000000000000,
100000000000000000000000000000000000000000000000,
100000000000200000000000100000000000000000000000,
100000000000200000000000100000000000000000000000,
100000000000000000000000200000000000000000000000,
100000000000000000000000000000000000000000000000,
300000000000000000000000100000000000000000000000,
100000000000100000000000100000000000000000000000,
300000000000000000000000100000000000000000000000,
100000000000100000000000100000000000000000000000,
100000000000000000000000100000000000000000000000,
100000000000000000000000100000000000100000000000,
9,
08,
#GOGOSTART
100000000000200000000000100000000000200000000000,
100000000000000000000000200000000000000000000000,
300000000000300000000000000000000000000000000000,
300000000000300000000000000000000000000000000000,
100000000000200000000000100000000000200000000000,
100000000000000000000000200000000000000000000000,
400000000000400000000000000000000000000000000000,
400000000000400000000000000000000000000000000000,
100000000000200000000000100000000000200000000000,
100000000000000000000000200000000000000000000000,
300000000000300000000000000000000000000000000000,
300000000000300000000000000000000000000000000000,
100000000000200000000000100000000000200000000000,
100000000000000000000000200000000000000000000000,
400000000000400000000000000000000000000000000000,
400000000000400000000000000000000000000000000000,
#GOGOEND
#END
COURSE:Easy
LEVEL:3
BALLOON:5
SCOREINIT:950
SCOREDIFF:430
#START
100000000000000000000000000000000000000000000000,
100000000000100000000000000000000000000000000000,
100000000000000000000000000000000000000000000000,
500000000000000000000000800000000000000000000000,
100000000000100000000000000000000000000000000000,
100000000000100000000000000000000000000000000000,
300000000000300000000000000000000000000000000000,
300000000000300000000000000000000000000000000000,
100000000000100000000000000000000000000000000000,
100000000000100000000000000000000000000000000000,
400000000000400000000000000000000000000000000000,
400000000000400000000000000000000000000000000000,
100000000000000000000000100000000000000000000000,
100000000000100000000000100000000000000000000000,
100000000000000000000000200000000000000000000000,
100000000000000000000000000000000000000000000000,
100000000000000000000000100000000000000000000000,
100000000000100000000000100000000000000000000000,
100000000000000000000000200000000000000000000000,
100000000000000000000000000000000000000000000000,
300000000000000000000000000000000000000000000000,
100000000000100000000000100000000000000000000000,
300000000000000000000000000000000000000000000000,
100000000000100000000000100000000000000000000000,
100000000000000000000000100000000000000000000000,
11,
9,
08,
#GOGOSTART
100000000000100000000000100000000000100000000000,
100000000000000000000000000000000000000000000000,
300000000000300000000000000000000000000000000000,
300000000000300000000000000000000000000000000000,
100000000000100000000000100000000000100000000000,
100000000000000000000000000000000000000000000000,
400000000000400000000000000000000000000000000000,
400000000000400000000000000000000000000000000000,
100000000000100000000000100000000000100000000000,
100000000000000000000000000000000000000000000000,
300000000000300000000000000000000000000000000000,
300000000000300000000000000000000000000000000000,
100000000000100000000000100000000000100000000000,
100000000000000000000000000000000000000000000000,
400000000000400000000000000000000000000000000000,
400000000000400000000000000000000000000000000000,
#GOGOEND
#END