441 lines
7.4 KiB
Plaintext
441 lines
7.4 KiB
Plaintext
//TJADB Project
|
|
TITLE:Paradise Baby
|
|
TITLEJA:楽園ベイベー
|
|
SUBTITLE:--RIP SLYME
|
|
BPM:113
|
|
WAVE:Paradise Baby.ogg
|
|
OFFSET:-2.118
|
|
DEMOSTART:55.221
|
|
|
|
COURSE:Oni
|
|
LEVEL:8
|
|
BALLOON:15
|
|
SCOREINIT:770
|
|
SCOREDIFF:200
|
|
|
|
|
|
#START
|
|
|
|
|
|
100000100000200000100000000000200000100000000000,
|
|
#BPMCHANGE 113.12
|
|
#SCROLL 0.99
|
|
100000100000200000100000000000200000100000000000,
|
|
100000200000200000100000000000200000100000000000,
|
|
#BPMCHANGE 113
|
|
100000200000200000100000000000000000000000000000,
|
|
100000100000200000100000000000200000100000000000,
|
|
100000100000200000100000000000200000100000000000,
|
|
700000000000000000000000000000000000000000000000,
|
|
800000000000000000000000000000000000300000000000,
|
|
100000200000100200000100000100000100200000000000,
|
|
100000200000100200000200000200000200100000000000,
|
|
#BPMCHANGE 113.69
|
|
100000200000100200000100000100000100200000000000,
|
|
#BPMCHANGE 112.25
|
|
#SCROLL 1
|
|
100000200000100200000200100000300000300000000000,
|
|
#BPMCHANGE 113.03
|
|
#SCROLL 0.99
|
|
100000200000100200000100000100000100200000100000,
|
|
100000200000100200000100000100000100200000000000,
|
|
#BPMCHANGE 113.59
|
|
100000200000100200000200000200000200100000200000,
|
|
#BPMCHANGE 113.28
|
|
100000200000100200000200100000300000300000000000,
|
|
#BPMCHANGE 112.72
|
|
#SCROLL 1
|
|
100000200000100200000000100000200000100200000000,
|
|
#BPMCHANGE 112.54
|
|
100000200000100200000000300000400000000000000000,
|
|
#BPMCHANGE 113
|
|
#SCROLL 0.99
|
|
100200200200000200200200000200200200100000200000,
|
|
100000200000100200000000300000400000000000000000,
|
|
#BPMCHANGE 113.55
|
|
100000200000100200000100100000200000100000200000,
|
|
#BPMCHANGE 113
|
|
100000200000100200000100100000400000000000300000,
|
|
100000200000100200000100100000200000100000200000,
|
|
100000200000100200000100100000200000100000200000,
|
|
#BPMCHANGE 112.42
|
|
#SCROLL 1
|
|
000000000000000000000000000000000000000000000000,
|
|
|
|
#GOGOSTART
|
|
#BPMCHANGE 113.49
|
|
100000100100100000100000100000200200200000100000,
|
|
#BPMCHANGE 113
|
|
100000100100100000100000100000200200200000100000,
|
|
100000100100100000100000200000200200200000200000,
|
|
100000100100100000100000000000300000300000300000,
|
|
000000100000100100100000200000100100100000100000,
|
|
000000100000100100100000200000100100100000100000,
|
|
000000200000200200200000000000100000100100100000,
|
|
#BPMCHANGE 112.47
|
|
000000200000200200200000000000400000300000000000,
|
|
|
|
#GOGOEND
|
|
#BPMCHANGE 113.34
|
|
000000000000000000000000000000000000000000000000,
|
|
100000200000100200000100000100000100200000100000,
|
|
#BPMCHANGE 112.37
|
|
#SCROLL 1.01
|
|
100000200000100100000100000100000200200000100000,
|
|
#BPMCHANGE 113.56
|
|
#SCROLL 0.99
|
|
100000200000100200000100000100000100200000100000,
|
|
#BPMCHANGE 113
|
|
#SCROLL 1
|
|
100000200000100200000200100000400000000000000000,
|
|
100000200000100200000100000100000200200000100000,
|
|
100000200000200200000100000100000200200000100000,
|
|
100000200000100200000100000100000200200000100000,
|
|
100000200000100200000200100000300000300000000000,
|
|
100000200000100200000000100000200000100200000000,
|
|
100000200000100200000000300000400000000000000000,
|
|
100200200200000200200200000200200200100000200000,
|
|
#BPMCHANGE 112.36
|
|
#SCROLL 1.01
|
|
100000200000100200000000300000400000000000000000,
|
|
#BPMCHANGE 113.7
|
|
#SCROLL 0.99
|
|
100000200000100200000100100000200000100000200000,
|
|
#BPMCHANGE 113
|
|
#SCROLL 1
|
|
100000200000100200000100100000400000400000000000,
|
|
#BPMCHANGE 112.14
|
|
#SCROLL 1.01
|
|
100000200000100200000100100000200000100000200000,
|
|
#BPMCHANGE 113
|
|
#SCROLL 1
|
|
100000200000100200000100100000200000300000400000,
|
|
|
|
|
|
#END
|
|
|
|
|
|
COURSE:Hard
|
|
LEVEL:7
|
|
BALLOON:12,9,9,9,9
|
|
SCOREINIT:920
|
|
SCOREDIFF:220
|
|
|
|
|
|
#START
|
|
|
|
|
|
10010120,
|
|
#BPMCHANGE 113.12
|
|
#SCROLL 0.99
|
|
10010120,
|
|
10010210,
|
|
#BPMCHANGE 113
|
|
1,
|
|
10020120,
|
|
10020120,
|
|
7,
|
|
8,
|
|
1010200110102000,
|
|
11201110,
|
|
#BPMCHANGE 113.69
|
|
1010200110102000,
|
|
#BPMCHANGE 112.25
|
|
#SCROLL 1
|
|
11203330,
|
|
#BPMCHANGE 113.03
|
|
#SCROLL 0.99
|
|
1010200110200010,
|
|
1010200110200010,
|
|
#BPMCHANGE 113.59
|
|
1010200110200020,
|
|
#BPMCHANGE 113.28
|
|
11203330,
|
|
#BPMCHANGE 112.72
|
|
#SCROLL 1
|
|
7008,
|
|
#BPMCHANGE 112.54
|
|
1010200110200000,
|
|
#BPMCHANGE 113
|
|
#SCROLL 0.99
|
|
7008,
|
|
1010200110200010,
|
|
#BPMCHANGE 113.55
|
|
1010200110200010,
|
|
#BPMCHANGE 113
|
|
1010200110200010,
|
|
10201111,
|
|
00203333,
|
|
#BPMCHANGE 112.42
|
|
#SCROLL 1
|
|
,
|
|
|
|
#GOGOSTART
|
|
#BPMCHANGE 113.49
|
|
1010100010111010,
|
|
#BPMCHANGE 113
|
|
0010100010111010,
|
|
0010100020222020,
|
|
01110333,
|
|
01110222,
|
|
01110333,
|
|
02220111,
|
|
#BPMCHANGE 112.47
|
|
02220430,
|
|
|
|
#GOGOEND
|
|
#BPMCHANGE 113.34
|
|
,
|
|
1010110010102010,
|
|
#BPMCHANGE 112.37
|
|
#SCROLL 1.01
|
|
1010110010102010,
|
|
#BPMCHANGE 113.56
|
|
#SCROLL 0.99
|
|
1020110010200020,
|
|
#BPMCHANGE 113
|
|
#SCROLL 1
|
|
1020110010200000,
|
|
1010220010102010,
|
|
1010220010102010,
|
|
1010220010200020,
|
|
1010220030303000,
|
|
7008,
|
|
1010220010200000,
|
|
7008,
|
|
#BPMCHANGE 112.36
|
|
#SCROLL 1.01
|
|
1010220010200010,
|
|
#BPMCHANGE 113.7
|
|
#SCROLL 0.99
|
|
1020110010102010,
|
|
#BPMCHANGE 113
|
|
#SCROLL 1
|
|
1020110010102010,
|
|
#BPMCHANGE 112.14
|
|
#SCROLL 1.01
|
|
1020110020100010,
|
|
#BPMCHANGE 113
|
|
#SCROLL 1
|
|
20203333,
|
|
|
|
|
|
#END
|
|
|
|
|
|
COURSE:Normal
|
|
LEVEL:4
|
|
BALLOON:9
|
|
SCOREINIT:1000
|
|
SCOREDIFF:280
|
|
|
|
|
|
#START
|
|
|
|
|
|
10010010,
|
|
#BPMCHANGE 113.12
|
|
#SCROLL 0.99
|
|
10010010,
|
|
10010010,
|
|
#BPMCHANGE 113
|
|
1,
|
|
10020010,
|
|
10020010,
|
|
7,
|
|
8,
|
|
1202,
|
|
10201110,
|
|
#BPMCHANGE 113.69
|
|
1202,
|
|
#BPMCHANGE 112.25
|
|
#SCROLL 1
|
|
10201110,
|
|
#BPMCHANGE 113.03
|
|
#SCROLL 0.99
|
|
1202,
|
|
1202,
|
|
#BPMCHANGE 113.59
|
|
11,
|
|
#BPMCHANGE 113.28
|
|
10103330,
|
|
#BPMCHANGE 112.72
|
|
#SCROLL 1
|
|
500000000000000000000000000000000008000000000000,
|
|
#BPMCHANGE 112.54
|
|
12,
|
|
#BPMCHANGE 113
|
|
#SCROLL 0.99
|
|
500000000000000000000000000000000008000000000000,
|
|
10201100,
|
|
#BPMCHANGE 113.55
|
|
0121,
|
|
#BPMCHANGE 113
|
|
00102220,
|
|
0121,
|
|
00104440,
|
|
#BPMCHANGE 112.42
|
|
#SCROLL 1
|
|
,
|
|
|
|
#GOGOSTART
|
|
#BPMCHANGE 113.49
|
|
10101110,
|
|
#BPMCHANGE 113
|
|
10101110,
|
|
10102220,
|
|
10100333,
|
|
00101110,
|
|
01110010,
|
|
01110222,
|
|
#BPMCHANGE 112.47
|
|
01110330,
|
|
|
|
#GOGOEND
|
|
#BPMCHANGE 113.34
|
|
,
|
|
10201101,
|
|
#BPMCHANGE 112.37
|
|
#SCROLL 1.01
|
|
1210,
|
|
#BPMCHANGE 113.56
|
|
#SCROLL 0.99
|
|
10201101,
|
|
#BPMCHANGE 113
|
|
#SCROLL 1
|
|
1210,
|
|
20102202,
|
|
2120,
|
|
2120,
|
|
10103330,
|
|
500000000000000000000000000000000008000000000000,
|
|
12,
|
|
500000000000000000000000000000000008000000000000,
|
|
#BPMCHANGE 112.36
|
|
#SCROLL 1.01
|
|
1221,
|
|
#BPMCHANGE 113.7
|
|
#SCROLL 0.99
|
|
0121,
|
|
#BPMCHANGE 113
|
|
#SCROLL 1
|
|
00201110,
|
|
#BPMCHANGE 112.14
|
|
#SCROLL 1.01
|
|
0121,
|
|
#BPMCHANGE 113
|
|
#SCROLL 1
|
|
00203330,
|
|
|
|
|
|
#END
|
|
|
|
|
|
COURSE:Easy
|
|
LEVEL:4
|
|
BALLOON:7
|
|
SCOREINIT:770
|
|
SCOREDIFF:230
|
|
|
|
|
|
#START
|
|
|
|
|
|
1001,
|
|
#BPMCHANGE 113.12
|
|
#SCROLL 0.99
|
|
1001,
|
|
1001,
|
|
#BPMCHANGE 113
|
|
1,
|
|
1002,
|
|
1002,
|
|
7,
|
|
8,
|
|
1110,
|
|
1110,
|
|
#BPMCHANGE 113.69
|
|
1112,
|
|
#BPMCHANGE 112.25
|
|
#SCROLL 1
|
|
1110,
|
|
#BPMCHANGE 113.03
|
|
#SCROLL 0.99
|
|
1110,
|
|
1110,
|
|
#BPMCHANGE 113.59
|
|
1112,
|
|
#BPMCHANGE 113.28
|
|
1110,
|
|
#BPMCHANGE 112.72
|
|
#SCROLL 1
|
|
500000000000000000000000000000000008000000000000,
|
|
#BPMCHANGE 112.54
|
|
12,
|
|
#BPMCHANGE 113
|
|
#SCROLL 0.99
|
|
500000000000000000000000000000000008000000000000,
|
|
1221,
|
|
#BPMCHANGE 113.55
|
|
0121,
|
|
#BPMCHANGE 113
|
|
0111,
|
|
0121,
|
|
0111,
|
|
#BPMCHANGE 112.42
|
|
#SCROLL 1
|
|
,
|
|
|
|
#GOGOSTART
|
|
#BPMCHANGE 113.49
|
|
1011,
|
|
#BPMCHANGE 113
|
|
1011,
|
|
1011,
|
|
10100333,
|
|
0111,
|
|
0111,
|
|
01110111,
|
|
#BPMCHANGE 112.47
|
|
01110330,
|
|
|
|
#GOGOEND
|
|
#BPMCHANGE 113.34
|
|
,
|
|
1212,
|
|
#BPMCHANGE 112.37
|
|
#SCROLL 1.01
|
|
11,
|
|
#BPMCHANGE 113.56
|
|
#SCROLL 0.99
|
|
1212,
|
|
#BPMCHANGE 113
|
|
#SCROLL 1
|
|
11,
|
|
2121,
|
|
22,
|
|
2121,
|
|
2,
|
|
500000000000000000000000000000000008000000000000,
|
|
34,
|
|
500000000000000000000000000000000008000000000000,
|
|
#BPMCHANGE 112.36
|
|
#SCROLL 1.01
|
|
1221,
|
|
#BPMCHANGE 113.7
|
|
#SCROLL 0.99
|
|
0121,
|
|
#BPMCHANGE 113
|
|
#SCROLL 1
|
|
0444,
|
|
#BPMCHANGE 112.14
|
|
#SCROLL 1.01
|
|
0121,
|
|
#BPMCHANGE 113
|
|
#SCROLL 1
|
|
0444,
|
|
|
|
|
|
#END
|
|
|