221 lines
6.2 KiB
Plaintext
221 lines
6.2 KiB
Plaintext
//TJADB Project
|
|
TITLE:Prisoner of Love
|
|
TITLEJA:Prisoner Of Love
|
|
SUBTITLE:--Hikaru Utada/Last Friends
|
|
BPM:97
|
|
WAVE:Prisoner of Love.ogg
|
|
OFFSET:-2.785
|
|
DEMOSTART:61.238
|
|
|
|
COURSE:Oni
|
|
LEVEL:6
|
|
SCOREINIT:1200
|
|
SCOREDIFF:320
|
|
|
|
|
|
#START
|
|
|
|
|
|
100000100000000000000000000000000000000000000000,
|
|
000000000000000000000000000000000000000000000000,
|
|
100000000000000000000000000000000000000000000000,
|
|
000000000000000000000000000000000000000000000000,
|
|
100000100000000000000000000000000000000000000000,
|
|
000000000000000000000000000000000000000000000000,
|
|
100000000000000000000000000000000000000000000000,
|
|
300000300000000000000000300000000000000000000000,
|
|
100000100000200000000100000100100000200000100000,
|
|
100000100000200000100100000100100000200000000000,
|
|
100000100000200000000100000100100000200000100000,
|
|
100000100000200000100100000100100000200000000000,
|
|
100000100000200000000100000100100000200000100000,
|
|
100000100000200000100100000100100000200000000000,
|
|
100000100000200000000100000100100000200000100000,
|
|
100000100000200000100100000100100000200000000000,
|
|
100000100000200000100100000100100000200000100100,
|
|
100000100000200000100100000100100000200000000000,
|
|
100000100000200000100100000100100000200000100100,
|
|
100000100000200000100100000100100000200000100100,
|
|
100000100000200000100100000100100000200000000000,
|
|
100000100000200000100100000100100000200000100100,
|
|
100000000000100000000000100000000000100000000000,
|
|
100000000000000000000000000000100000100100100000,
|
|
|
|
#GOGOSTART
|
|
200000100000200100100000200000100000200100100000,
|
|
100000200100000200000200000100100000200100100000,
|
|
100000200100000200000200000100100000200000100000,
|
|
500000000000000000000000000008000000000000000000,
|
|
200000100000200100100000200000100000200100100000,
|
|
100000200100000200000200000100100000200100100000,
|
|
100000200100000200000200000100100000200000100000,
|
|
100000100100000100000500000000008000000000000000,
|
|
100000100000200000200100000100100000200000100000,
|
|
100000100000200000200100000100100000200000100000,
|
|
100000100000200000200100000100100000200000100000,
|
|
300000300000000000000000300000000000000000000000,
|
|
|
|
#GOGOEND
|
|
|
|
|
|
#END
|
|
|
|
|
|
COURSE:Hard
|
|
LEVEL:4
|
|
SCOREINIT:1420
|
|
SCOREDIFF:440
|
|
|
|
|
|
#START
|
|
|
|
|
|
100000100000000000000000000000000000000000000000,
|
|
000000000000000000000000000000000000000000000000,
|
|
100000100000000000000000000000000000000000000000,
|
|
000000000000000000000000000000000000000000000000,
|
|
100000100000000000000000000000000000000000000000,
|
|
100000000000000000000000000000000000000000000000,
|
|
100000100000000000000000000000000000000000000000,
|
|
300000300000000000000000300000000000000000000000,
|
|
100000000000200000000100000000100000200000000000,
|
|
100000000000200000000100000000100000200000000000,
|
|
100000000000200000000000000000100000200000000000,
|
|
100000000000100000000000100000000000200000000000,
|
|
100000000000200000000100000000100000200000000000,
|
|
100000000000200000000100000000100000200000000000,
|
|
100000000000200000000100000000100000200000100000,
|
|
100000000000200000000000100000000000000000000000,
|
|
100000100000200000000000100000100000200000000000,
|
|
100000000000100000000000200000000000100000000000,
|
|
100000100000200000000000100000100000200000000000,
|
|
100000000000100000000000100000000000200000000000,
|
|
100000100000200000000000100000100000200000000000,
|
|
100000000000100000000000200000000000100000000000,
|
|
100000000000100000000000100000000000100000000000,
|
|
100000000000000000000000000000000000000000000000,
|
|
#GOGOSTART
|
|
100000100000200000000000100000100000200000000000,
|
|
100000000100000100000100000000100000200000000000,
|
|
100000000100000100000100000000100000200000000000,
|
|
500000000000000000000000000800000000000000000000,
|
|
100000100000200000000000100000100000200000000000,
|
|
100000000100000100000100000000100000200000000000,
|
|
100000000100000100000100000000100000200000000000,
|
|
100000000100000100000100000000100000200000000000,
|
|
100000100000000000000200000000100000200000000000,
|
|
100000100000000000000200000000100000200000000000,
|
|
100000100000000000000200000000100000200000000000,
|
|
300000300000000000000000300000000000000000000000,
|
|
#GOGOEND
|
|
|
|
|
|
#END
|
|
|
|
|
|
COURSE:Normal
|
|
LEVEL:3
|
|
SCOREINIT:1470
|
|
SCOREDIFF:620
|
|
|
|
|
|
#START
|
|
|
|
|
|
100000100000000000000000000000000000000000000000,
|
|
000000000000000000000000000000000000000000000000,
|
|
100000100000000000000000000000000000000000000000,
|
|
000000000000000000000000000000000000000000000000,
|
|
100000100000000000000000000000000000000000000000,
|
|
100000000000000000000000000000000000000000000000,
|
|
100000100000000000000000000000000000000000000000,
|
|
300000300000000000000000000000000000000000000000,
|
|
100000000000200000000000000000000000100000000000,
|
|
100000000000200000000000000000000000100000000000,
|
|
100000000000200000000000000000000000000000000000,
|
|
000000000000100000000000100000000000000000000000,
|
|
100000000000200000000000000000000000100000000000,
|
|
100000000000200000000000000000000000100000000000,
|
|
100000000000200000000000000000000000000000000000,
|
|
100000000000000000000000000000000000000000000000,
|
|
100000000000200000000000100000000000200000000000,
|
|
100000000000100000000000200000000000000000000000,
|
|
100000000000200000000000100000000000200000000000,
|
|
100000000000100000000000100000000000000000000000,
|
|
100000000000200000000000100000000000200000000000,
|
|
100000000000100000000000200000000000000000000000,
|
|
100000000000100000000000100000000000100000000000,
|
|
100000000000000000000000000000000000000000000000,
|
|
#GOGOSTART
|
|
100000000000100000100000100000000000100000000000,
|
|
300000000000300000000000300000000000000000000000,
|
|
100000000000100000000000100000000000000000000000,
|
|
500000000000000000000000800000000000000000000000,
|
|
100000000000100000100000100000000000100000000000,
|
|
300000000000300000000000300000000000000000000000,
|
|
100000000000100000000000100000000000000000000000,
|
|
100000100000000000000000100000000000000000000000,
|
|
100000100000000000000000000000000000200000000000,
|
|
100000100000000000000000000000000000200000000000,
|
|
100000100000000000000000000000000000200000000000,
|
|
300000300000000000000000300000000000000000000000,
|
|
#GOGOEND
|
|
|
|
|
|
#END
|
|
|
|
|
|
COURSE:Easy
|
|
LEVEL:2
|
|
SCOREINIT:1320
|
|
SCOREDIFF:840
|
|
|
|
|
|
#START
|
|
|
|
|
|
1,
|
|
,
|
|
1,
|
|
,
|
|
1,
|
|
1,
|
|
1,
|
|
3,
|
|
11,
|
|
1011,
|
|
1,
|
|
0111,
|
|
11,
|
|
1011,
|
|
1,
|
|
,
|
|
2222,
|
|
2,
|
|
2222,
|
|
2,
|
|
2222,
|
|
2,
|
|
1011,
|
|
1,
|
|
|
|
#GOGOSTART
|
|
33,
|
|
3330,
|
|
12,
|
|
500000000000000000000008000000000000000000000000,
|
|
33,
|
|
3330,
|
|
12,
|
|
12,
|
|
2,
|
|
2,
|
|
2,
|
|
33,
|
|
|
|
#GOGOEND
|
|
|
|
|
|
#END
|
|
|