255 lines
8.9 KiB
Plaintext
255 lines
8.9 KiB
Plaintext
//TJADB Project
|
|
TITLE:Pure
|
|
TITLEJA:Pure
|
|
SUBTITLE:--EXILE/W54S & LISMO
|
|
BPM:111
|
|
WAVE:Pure.ogg
|
|
OFFSET:-2.411
|
|
DEMOSTART:54.032
|
|
|
|
COURSE:Oni
|
|
LEVEL:4
|
|
BALLOON:15,30
|
|
SCOREINIT:1090
|
|
SCOREDIFF:260
|
|
|
|
|
|
#START
|
|
|
|
|
|
100000000000200000200000000000200000200000100000,
|
|
000000200000200000200000000000200000200000100000,
|
|
000000200000200000200000000000200000200000100000,
|
|
000000100000200000200000000000200000200000100000,
|
|
000000100000200000200000000000200000200000100000,
|
|
000000100000200000200000000000100000200000100000,
|
|
000000000000000000000000000000000000000000300000,
|
|
000000000000000000000000000000000000000000000000,
|
|
100000100000200000100000000000100000200000100000,
|
|
000000100000200000200000000000100000200000100000,
|
|
000000100000200000100000000000100000100000200000,
|
|
000000100000200000200000000000000000000000000000,
|
|
100000100000200000100000000000100000200000100000,
|
|
000000100000200000200000000000000000100000200000,
|
|
000000100000200000100000000000100000100000200000,
|
|
000000100000100000000000000000200000100000100000,
|
|
000000100000200000100000000000100000200000100000,
|
|
000000100000200000200000000000100000200000100000,
|
|
000000100000200000200000000000100000200000200000,
|
|
000000100000200000100000000000100000200000100000,
|
|
000000200000100000200000000000100000200000100000,
|
|
000000200000100000200000000000000000300000300000,
|
|
000000000000300000300000000000000000300000300000,
|
|
#BPMCHANGE 111.6
|
|
000000300000600000000000000008000000000000000000,
|
|
|
|
#GOGOSTART
|
|
#BPMCHANGE 111
|
|
100000000000200000000100100000100000200000100000,
|
|
000000100000200000100000200200100000200000100000,
|
|
100000000000200000100000200200100000200000100000,
|
|
000000100000200000100000200200100000200000000000,
|
|
100000000000200000000100100000100000200000100000,
|
|
000000100000200000100000200200100000200000100000,
|
|
000000100000200000100000200200100000200000700000,
|
|
000000000000000000000000000000000800000000000000,
|
|
100000000000200000000100100000100000200000100000,
|
|
000000100000200000100000200200100000200000100000,
|
|
100000000000200000100000200200100000200000100000,
|
|
000000100000200000100000200200100000200000000000,
|
|
100000000000200000000100100000100000200000100000,
|
|
000000100000200000100000200200100000200000100000,
|
|
100000000000200000100000000000100000200000300000,
|
|
000000300000000000300000000000300000000000000000,
|
|
|
|
#GOGOEND
|
|
700000000000000000000000000000000000000000000000,
|
|
000000000000000000000000000800000000000000000000,
|
|
|
|
|
|
#END
|
|
|
|
|
|
COURSE:Hard
|
|
LEVEL:4
|
|
BALLOON:16
|
|
SCOREINIT:1220
|
|
SCOREDIFF:330
|
|
|
|
|
|
#START
|
|
|
|
|
|
100000000000200000200000000000000000000000100000,
|
|
000000200000200000200000000000000000000000100000,
|
|
000000200000200000200000000000200000000000100000,
|
|
000000100000200000200000000000000000000000000000,
|
|
100000000000200000200000000000200000200000100000,
|
|
000000200000200000200000000000200000200000100000,
|
|
000000000000000000000000000000000000000000300000,
|
|
000000000000000000000000000000000000000000000000,
|
|
100000000000200000100000000000100000200000000000,
|
|
000000100000200000100000000000100000100000000000,
|
|
000000100000200000100000000000100000200000100000,
|
|
000000100000200000200000000000000000000000000000,
|
|
100000000000200000100000000000100000200000000000,
|
|
000000100000200000100000000000000000100000100000,
|
|
000000100000200000100000000000100000200000100000,
|
|
000000100000100000000000000000000000000000000000,
|
|
000000000000200000100000000000100000200000000000,
|
|
000000000000200000100000000000100000200000100000,
|
|
000000100000200000100000000000100000200000100000,
|
|
000000100000100000000000000000100000100000100000,
|
|
000000200000200000200000000000100000100000100000,
|
|
000000200000200000200000000000000000100000100000,
|
|
000000000000100000100000000000000000100000100000,
|
|
#BPMCHANGE 111.6
|
|
000000500000000000000000000000000800000000000000,
|
|
#GOGOSTART
|
|
#BPMCHANGE 111
|
|
100000000000200000000100100000100000200000000000,
|
|
000000100000200000100000000000100000200000000000,
|
|
100000000000200000100000000000100000200000100000,
|
|
000000000000500000000000000000000800000000000000,
|
|
100000000000200000000100100000100000200000000000,
|
|
000000100000200000100000000000100000200000100000,
|
|
000000000000500000000000000000000000000000000800,
|
|
000000000000000000000000000000000000000000000000,
|
|
100000000000200000000100100000100000200000000000,
|
|
000000100000200000100000000000100000200000000000,
|
|
100000000000200000100000000000100000200000300000,
|
|
000000300000000000300000000000000000000000000000,
|
|
100000000000200000000100100000100000200000100000,
|
|
000000100000000000100000000000100000200000000000,
|
|
100000000000100000100000000000000000000000300000,
|
|
000000300000000000300000000000300000000000000000,
|
|
#GOGOEND
|
|
700000000000000000000000000000000000000000000000,
|
|
000000000000000000000000000000000800000000000000,
|
|
|
|
|
|
#END
|
|
|
|
|
|
COURSE:Normal
|
|
LEVEL:3
|
|
BALLOON:12
|
|
SCOREINIT:1510
|
|
SCOREDIFF:590
|
|
|
|
|
|
#START
|
|
|
|
|
|
200000000000200000200000000000000000000000000000,
|
|
200000000000200000200000000000000000000000000000,
|
|
200000000000000000200000000000000000000000000000,
|
|
200000000000000000000000000000000000000000000000,
|
|
200000000000200000200000000000000000000000000000,
|
|
200000000000200000200000000000000000000000000000,
|
|
200000000000000000000000000000000000000000000000,
|
|
000000000000000000000000000000000000000000000000,
|
|
100000000000000000100000000000000000000000000000,
|
|
100000000000000000100000000000000000000000000000,
|
|
100000000000100000100000000000000000100000100000,
|
|
000000000000100000000000000000000000000000000000,
|
|
100000000000000000100000000000000000000000000000,
|
|
100000000000000000100000000000000000000000000000,
|
|
100000000000100000100000000000000000100000100000,
|
|
000000000000100000000000000000000000000000000000,
|
|
100000000000200000000000000000000000200000000000,
|
|
100000000000200000000000000000000000000000000000,
|
|
100000000000200000000000100000000000200000000000,
|
|
100000000000000000000000000000100000100000100000,
|
|
000000000000000000000000000000200000200000200000,
|
|
000000000000000000000000000000000000000000300000,
|
|
000000000000000000300000000000000000000000300000,
|
|
#BPMCHANGE 111.6
|
|
000000000000000000000000000000000000000000000000,
|
|
#GOGOSTART
|
|
#BPMCHANGE 111
|
|
100000000000200000000000100000000000200000000000,
|
|
000000000000200000000000100000000000200000000000,
|
|
100000000000100000100000000000000000100000000000,
|
|
500000000000000000000000000000800000000000000000,
|
|
100000000000100000100000000000000000200000000000,
|
|
100000000000100000100000000000000000200000000000,
|
|
500000000000000000000000000000000000000000800000,
|
|
000000000000000000000000000000000000000000000000,
|
|
100000000000200000000000100000000000200000000000,
|
|
000000000000200000000000100000000000200000000000,
|
|
100000000000100000100000000000000000100000000000,
|
|
500000000000000000000000000000800000000000000000,
|
|
100000000000000000000000200000000000000000300000,
|
|
000000300000000000300000000000000000000000000000,
|
|
100000000000100000100000000000000000000000300000,
|
|
000000000000000000000000000000000000000000000000,
|
|
#GOGOEND
|
|
9,
|
|
08,
|
|
|
|
|
|
#END
|
|
|
|
|
|
COURSE:Easy
|
|
LEVEL:3
|
|
BALLOON:10
|
|
SCOREINIT:1530
|
|
SCOREDIFF:940
|
|
|
|
|
|
#START
|
|
|
|
|
|
200000000000000000000000000000000000000000000000,
|
|
200000000000000000000000000000000000000000000000,
|
|
200000000000000000000000200000000000000000000000,
|
|
200000000000000000000000000000000000000000000000,
|
|
200000000000000000000000000000000000000000000000,
|
|
200000000000000000000000200000000000000000000000,
|
|
200000000000000000000000000000000000000000000000,
|
|
000000000000000000000000000000000000000000000000,
|
|
100000000000000000000000000000000000000000000000,
|
|
100000000000000000000000100000000000000000000000,
|
|
100000000000000000000000100000000000000000000000,
|
|
100000000000100000000000000000000000000000000000,
|
|
100000000000000000000000000000000000000000000000,
|
|
100000000000000000000000100000000000000000000000,
|
|
100000000000000000000000100000000000000000000000,
|
|
100000000000100000000000000000000000000000000000,
|
|
000000000000200000000000000000000000200000000000,
|
|
000000000000200000000000000000000000200000000000,
|
|
000000000000200000000000000000000000200000000000,
|
|
000000000000200000000000000000000000000000000000,
|
|
000000000000100000000000000000000000100000000000,
|
|
000000000000100000000000000000000000000000300000,
|
|
000000000000000000300000000000000000000000300000,
|
|
#BPMCHANGE 111.6
|
|
000000000000000000000000000000000000000000000000,
|
|
#GOGOSTART
|
|
#BPMCHANGE 111
|
|
100000000000100000000000100000000000000000000000,
|
|
100000000000100000000000100000000000000000000000,
|
|
100000000000000000000000100000000000000000000000,
|
|
500000000000000000000000800000000000000000000000,
|
|
100000000000000000000000200000000000000000000000,
|
|
100000000000000000000000200000000000000000000000,
|
|
100000000000000000000000000000000000000000000000,
|
|
000000000000000000000000000000000000000000000000,
|
|
100000000000100000000000100000000000000000000000,
|
|
100000000000100000000000100000000000000000000000,
|
|
100000000000000000000000200000000000000000000000,
|
|
500000000000000000000000800000000000000000000000,
|
|
100000000000000000000000100000000000000000000000,
|
|
100000000000000000000000000000000000100000000000,
|
|
100000000000100000000000000000000000000000300000,
|
|
000000000000000000000000000000000000000000000000,
|
|
#GOGOEND
|
|
9,
|
|
08,
|
|
|
|
|
|
#END
|
|
|