306 lines
9.4 KiB
Plaintext
306 lines
9.4 KiB
Plaintext
//TJADB Project
|
|
TITLE:Qun Bai Yao Yao
|
|
TITLEZH:裙擺搖搖
|
|
SUBTITLE:--Angelica Lee
|
|
SUBTITLEZH:--李心潔
|
|
BPM:127.72
|
|
WAVE:Qun Bai Yao Yao.ogg
|
|
OFFSET:-2.171
|
|
DEMOSTART:41.593
|
|
|
|
COURSE:Oni
|
|
LEVEL:7
|
|
SCOREINIT:730
|
|
SCOREDIFF:190
|
|
|
|
|
|
#START
|
|
|
|
|
|
100000100100100000200000100200000100200000200000,
|
|
100000100100100000200000100200000100200000200000,
|
|
100200100200100000100000100200100200100000200000,
|
|
100200100200100000100000100200100200100000000000,
|
|
100000100100100000200000100200000100200000200000,
|
|
100000100100100000200000100200000100200000000000,
|
|
100200100200100000100000100200100200100000200000,
|
|
100200100200100000100000100000200000100000200000,
|
|
100000000000200200200000200000200200200000200000,
|
|
100000100000200000200000100000200200200000200000,
|
|
000000200200200000200000100000200200200000200000,
|
|
000000000000000000000000000000000000000000000000,
|
|
100000000000200200200000200000200200200000200000,
|
|
100000100000200000200000100000200200200000200000,
|
|
000000200200200000200000100000200200200000200000,
|
|
500000000000000000000000000000000008000000000000,
|
|
000000400000000000400000000000000000000000000000,
|
|
|
|
#GOGOSTART
|
|
100000100100100000200000100200000200100000200000,
|
|
100000200200200000200000100000200000200000000000,
|
|
200100000100200000200100000100200000200000200000,
|
|
000000000000000000000000000000000000000000000000,
|
|
100000100100100000200000100200000200100000200000,
|
|
100000200200200000200000100000200000200000000000,
|
|
200100000100200000200100000100200000200000200000,
|
|
000000000000000000000000200200200000200200200000,
|
|
|
|
#GOGOEND
|
|
100000000000100000100000100000100100100000200000,
|
|
100000200000100000100000200000100000200000100000,
|
|
100000000000200000100000000000200200200000000000,
|
|
200000000000000000200000200200200000200200200000,
|
|
100000000000100000100000100000100100100000200000,
|
|
100000200000100000100000200000100000200000100000,
|
|
100000000000000000000000000000000000000000400000,
|
|
000000000000000000000000000000000000000000000000,
|
|
100000100000200000000000100000100000200000000000,
|
|
100000100000200000000000100000100000200000000000,
|
|
100000100000200000200000100000100000200000200000,
|
|
000000200000000000000000000000000000000000000000,
|
|
100000100100200000000000100000100100200000000000,
|
|
100000100100200000000000100000100100200000000000,
|
|
100100100000200000200000100100100000200000200000,
|
|
000000000000000000000000000000000000000000000000,
|
|
|
|
#GOGOSTART
|
|
100000100100200000200000100000100100200000200000,
|
|
100000100100200000200000100000100000200000000000,
|
|
100000200200200000200000100000200200200000200000,
|
|
000000200000000000000000000000000000000000000000,
|
|
100000200100200000200000100000200100200000200000,
|
|
100000200100200000200000100000200100200000000000,
|
|
100000100100200000200100000000100100200000200000,
|
|
000000000000000000000000000000000000000000000000,
|
|
100000100100200000200100000000100100200000200000,
|
|
000000000000000000000000000000000000000000000000,
|
|
100000100100200000200100000000100100200000200000,
|
|
000000000000000000000000000000000000000000000000,
|
|
100000100100200000200100000000200200200000200000,
|
|
|
|
#GOGOEND
|
|
|
|
|
|
#END
|
|
|
|
|
|
COURSE:Hard
|
|
LEVEL:5
|
|
SCOREINIT:870
|
|
SCOREDIFF:230
|
|
|
|
|
|
#START
|
|
|
|
|
|
11101020,
|
|
11101000,
|
|
11110020,
|
|
11110020,
|
|
11101020,
|
|
11101000,
|
|
11110020,
|
|
11110020,
|
|
20220220,
|
|
00220220,
|
|
1210,
|
|
1212,
|
|
10220220,
|
|
00220220,
|
|
1212,
|
|
500000000000000000000000000000000008000000000000,
|
|
04040000,
|
|
|
|
#GOGOSTART
|
|
10201120,
|
|
10220220,
|
|
11221122,
|
|
,
|
|
10201120,
|
|
10220220,
|
|
11221122,
|
|
,
|
|
|
|
#GOGOEND
|
|
20111101,
|
|
10110101,
|
|
10010220,
|
|
20020000,
|
|
20111101,
|
|
10110101,
|
|
500000000000000000000000000008000000000000400000,
|
|
,
|
|
10201122,
|
|
10201122,
|
|
11221122,
|
|
02000000,
|
|
10201122,
|
|
10201122,
|
|
11221122,
|
|
02020000,
|
|
|
|
#GOGOSTART
|
|
10201122,
|
|
10201122,
|
|
11221122,
|
|
02002020,
|
|
10201122,
|
|
10201122,
|
|
11221122,
|
|
0222,
|
|
11221122,
|
|
0222,
|
|
11221122,
|
|
0222,
|
|
10201022,
|
|
|
|
#GOGOEND
|
|
|
|
|
|
#END
|
|
|
|
|
|
COURSE:Normal
|
|
LEVEL:3
|
|
SCOREINIT:1150
|
|
SCOREDIFF:370
|
|
|
|
|
|
#START
|
|
|
|
|
|
100000000000100000000000100000000000000000000000,
|
|
100000000000100000000000100000000000000000000000,
|
|
100000000000100000100000000000000000000000000000,
|
|
100000000000100000100000000000000000000000000000,
|
|
100000000000100000000000100000000000000000000000,
|
|
100000000000100000000000100000000000000000000000,
|
|
100000000000100000100000000000000000000000000000,
|
|
100000000000100000100000000000000000000000000000,
|
|
000000000000200000000000000000000000200000000000,
|
|
000000000000200000000000000000000000200000000000,
|
|
000000000000100000000000000000000000100000000000,
|
|
300000000000000000000000000000000000000000000000,
|
|
000000000000200000000000000000000000200000000000,
|
|
000000000000200000000000000000000000200000000000,
|
|
000000000000100000000000000000000000100000000000,
|
|
500000000000000000000000800000000000000000000000,
|
|
000000000000000000000000000000000000000000000000,
|
|
#GOGOSTART
|
|
100000000000100000000000100000000000000000000000,
|
|
100000000000100000000000100000000000000000000000,
|
|
100000000000100000000000100000000000000000200000,
|
|
000000000000000000000000000000000000000000000000,
|
|
100000000000100000000000100000000000000000000000,
|
|
100000000000100000000000100000000000000000000000,
|
|
100000000000100000000000100000000000000000200000,
|
|
000000000000000000000000000000000000000000000000,
|
|
#GOGOEND
|
|
200000000000100000000000100000000000200000000000,
|
|
100000000000100000000000200000000000000000000000,
|
|
100000000000000000100000000000000000000000000000,
|
|
200000000000000000200000000000000000000000000000,
|
|
200000000000100000000000100000000000200000000000,
|
|
100000000000100000000000200000000000000000000000,
|
|
500000000000000000000000000000000000000000000800,
|
|
000000000000000000000000000000000000000000000000,
|
|
100000000000200000000000100000000000000000000000,
|
|
100000000000200000000000100000000000000000000000,
|
|
100000000000200000000000100000000000200000000000,
|
|
100000000000000000000000000000000000000000000000,
|
|
100000000000200000000000100000000000000000000000,
|
|
100000000000200000000000100000000000000000000000,
|
|
100000000000200000000000100000000000000000300000,
|
|
000000000000000000000000000000000000000000000000,
|
|
#GOGOSTART
|
|
100000000000200000000000100000000000200000000000,
|
|
100000000000100000000000100000000000000000000000,
|
|
100000000000200000000000100000000000200000000000,
|
|
100000000000000000000000000000000000000000000000,
|
|
100000000000200000000000100000000000200000000000,
|
|
100000000000100000000000100000000000000000000000,
|
|
100000000000200000000000100000000000000000300000,
|
|
000000000000000000000000000000000000000000000000,
|
|
100000000000200000000000100000000000000000300000,
|
|
000000000000000000000000000000000000000000000000,
|
|
100000000000200000000000100000000000000000300000,
|
|
000000000000000000000000000000000000000000000000,
|
|
500000000000000000000000000000000000000000000008,
|
|
#GOGOEND
|
|
|
|
|
|
#END
|
|
|
|
|
|
COURSE:Easy
|
|
LEVEL:4
|
|
SCOREINIT:820
|
|
SCOREDIFF:290
|
|
|
|
|
|
#START
|
|
|
|
|
|
100000000000000000000000100000000000100000000000,
|
|
100000000000000000000000100000000000000000000000,
|
|
100000000000000000000000100000000000100000000000,
|
|
100000000000000000000000100000000000000000000000,
|
|
100000000000000000000000100000000000100000000000,
|
|
100000000000000000000000100000000000000000000000,
|
|
100000000000000000000000100000000000100000000000,
|
|
100000000000000000000000300000000000000000000000,
|
|
000000000000200000000000000000000000200000000000,
|
|
000000000000200000000000000000000000200000000000,
|
|
000000000000100000000000000000000000100000000000,
|
|
300000000000000000000000000000000000000000000000,
|
|
000000000000200000000000000000000000200000000000,
|
|
000000000000200000000000000000000000200000000000,
|
|
000000000000100000000000000000000000100000000000,
|
|
500000000000000000000000800000000000000000000000,
|
|
000000000000000000000000000000000000000000000000,
|
|
#GOGOSTART
|
|
100000000000100000000000100000000000000000000000,
|
|
100000000000100000000000100000000000000000000000,
|
|
100000000000100000000000100000000000100000000000,
|
|
000000000000000000000000000000000000000000000000,
|
|
100000000000100000000000100000000000000000000000,
|
|
100000000000100000000000100000000000000000000000,
|
|
100000000000100000000000100000000000100000000000,
|
|
000000000000000000000000000000000000000000000000,
|
|
#GOGOEND
|
|
100000000000100000000000200000000000000000000000,
|
|
100000000000100000000000200000000000000000000000,
|
|
300000000000000000300000000000000000000000000000,
|
|
200000000000000000000000000000000000000000000000,
|
|
100000000000100000000000200000000000000000000000,
|
|
100000000000100000000000200000000000000000000000,
|
|
300000000000000000000000000000000000000000000000,
|
|
400000000000000000000000000000000000000000000000,
|
|
100000000000100000000000100000000000000000000000,
|
|
100000000000100000000000100000000000000000000000,
|
|
100000000000100000000000100000000000000000000000,
|
|
300000000000000000000000000000000000000000000000,
|
|
100000000000100000000000100000000000000000000000,
|
|
100000000000100000000000100000000000000000000000,
|
|
100000000000100000000000100000000000000000300000,
|
|
000000000000000000000000000000000000000000000000,
|
|
#GOGOSTART
|
|
100000000000100000000000100000000000000000000000,
|
|
100000000000100000000000100000000000000000000000,
|
|
100000000000100000000000100000000000000000000000,
|
|
300000000000000000000000000000000000000000000000,
|
|
100000000000100000000000100000000000000000000000,
|
|
100000000000100000000000100000000000000000000000,
|
|
100000000000100000000000100000000000000000300000,
|
|
000000000000000000000000000000000000000000000000,
|
|
100000000000100000000000100000000000000000300000,
|
|
000000000000000000000000000000000000000000000000,
|
|
100000000000100000000000100000000000000000300000,
|
|
000000000000000000000000000000000000000000000000,
|
|
500000000000000000000000000000000000000000000008,
|
|
#GOGOEND
|
|
|
|
|
|
#END
|
|
|