358 lines
11 KiB
Plaintext
358 lines
11 KiB
Plaintext
//TJADB Project
|
|
TITLE:Real Life, Real Heart
|
|
TITLEJA:リルラリルハ
|
|
SUBTITLE:--Kaela Kimura
|
|
BPM:135.55
|
|
WAVE:Real Life, Real Heart.ogg
|
|
OFFSET:-1.897
|
|
DEMOSTART:71.748
|
|
|
|
COURSE:Oni
|
|
LEVEL:5
|
|
SCOREINIT:640
|
|
SCOREDIFF:150
|
|
|
|
|
|
#START
|
|
|
|
|
|
#SCROLL 1.01
|
|
100200100101,
|
|
#BPMCHANGE 138.07
|
|
#SCROLL 0.99
|
|
100200100101,
|
|
#BPMCHANGE 138.02
|
|
100200100101,
|
|
#BPMCHANGE 138.12
|
|
100200100101,
|
|
#BPMCHANGE 136.8
|
|
#SCROLL 1
|
|
101200100201,
|
|
#BPMCHANGE 137.46
|
|
101200100101,
|
|
101200100201,
|
|
101200100101,
|
|
101200101101,
|
|
101200100101,
|
|
101200100201,
|
|
101200100101,
|
|
111200101101,
|
|
101200100101,
|
|
101200100201,
|
|
111201111200,
|
|
100200100202,
|
|
102102112100,
|
|
100202100202,
|
|
102102112100,
|
|
100202100202,
|
|
102102112100,
|
|
100202100202,
|
|
102101111200,
|
|
101202100101,
|
|
101202100201,
|
|
101202100101,
|
|
101202100202,
|
|
101202100101,
|
|
101202100201,
|
|
101202100202,
|
|
111102111200,
|
|
100200100202,
|
|
102102112100,
|
|
100202100202,
|
|
102102112200,
|
|
100202100202,
|
|
102102122200,
|
|
100202100202,
|
|
102100111111,
|
|
|
|
#GOGOSTART
|
|
101202101202,
|
|
002102112202,
|
|
100202101200,
|
|
111202101200,
|
|
100201101200,
|
|
100201101201,
|
|
111202111201,
|
|
111202001200,
|
|
101202101202,
|
|
002102112202,
|
|
100202101200,
|
|
100202101200,
|
|
100202111201,
|
|
100202101200,
|
|
300200301203,
|
|
000202101200,
|
|
111200111201,
|
|
112202001200,
|
|
300200301203,
|
|
000202102200,
|
|
111200111201,
|
|
100202201200,
|
|
|
|
#GOGOEND
|
|
|
|
|
|
#END
|
|
|
|
|
|
COURSE:Hard
|
|
LEVEL:5
|
|
BALLOON:14,14
|
|
SCOREINIT:670
|
|
SCOREDIFF:180
|
|
|
|
|
|
#START
|
|
|
|
|
|
#SCROLL 1.01
|
|
100000000000100000000000100000000000100000001000,
|
|
#BPMCHANGE 138.07
|
|
#SCROLL 0.99
|
|
100000000000200000000000100000000000100000001000,
|
|
#BPMCHANGE 138.02
|
|
100000000000100000000000100000000000100000001000,
|
|
#BPMCHANGE 138.12
|
|
100000000000200000000000100000000000100000001000,
|
|
#BPMCHANGE 136.8
|
|
#SCROLL 1
|
|
100000000000400000000000100000000000000000001000,
|
|
#BPMCHANGE 137.46
|
|
100000000000400000000000100000000000000000001000,
|
|
100000000000400000000000100000000000000000001000,
|
|
100000000000400000000000100000000000000000001000,
|
|
100000000000400000000000100000000000100000001000,
|
|
100000000000400000000000100000000000100000001000,
|
|
100000000000400000000000100000000000100000001000,
|
|
100000000000400000000000100000000000100000001000,
|
|
100000000000400000000000100000000000100000001000,
|
|
100000000000400000000000100000000000100000001000,
|
|
100000000000400000000000100000000000100000001000,
|
|
100000001000100000001000100000001000000000000000,
|
|
100000000000200000000000100000000000200000001000,
|
|
100000002000200000001000100000002000200000000000,
|
|
100000000000200000000000100000000000200000000000,
|
|
100000002000200000001000100000002000200000000000,
|
|
100000000000200000000000100000000000200000000000,
|
|
100000002000200000001000100000002000200000000000,
|
|
100000000000200000000000100000000000200000001000,
|
|
100000001000100000001000100000001000100000000000,
|
|
100000000000200000000000100000001000100000001000,
|
|
100000000000200000000000100000001000100000001000,
|
|
100000000000200000000000100000001000100000001000,
|
|
100000000000200000000000100000001000100000001000,
|
|
100000000000200000000000100000001000100000001000,
|
|
100000000000200000000000100000001000100000001000,
|
|
100000000000200000000000100000001000100000001000,
|
|
100000002000200000002000200000001000000000000000,
|
|
100000000000200000000000100000000000200000001000,
|
|
100000002000200000001000100000002000200000000000,
|
|
100000000000200000000000100000000000200000000000,
|
|
100000002000200000001000100000002000200000001000,
|
|
100000000000200000000000100000000000200000000000,
|
|
100000002000200000001000100000002000200000001000,
|
|
100000000000200000000000100000000000200000000000,
|
|
100000000000100000000000100010001000100010001000,
|
|
#GOGOSTART
|
|
100000000000200000001000100000001000200000001000,
|
|
100000001000100000001000100000002000200000001000,
|
|
700000000000000000000000000000000000000000000000,
|
|
000000008000000000000000000000000000000000000000,
|
|
100000000000200000001000100000000000200000000000,
|
|
100000000000200000001000100000000000200000000000,
|
|
100000000000200000002000000000000000200000000000,
|
|
100000000000200000002000000000000000200000000000,
|
|
100000000000200000001000100000001000200000001000,
|
|
100000001000100000001000100000002000200000001000,
|
|
700000000000000000000000000000000000000000000000,
|
|
000000008000000000000000000000000000000000000000,
|
|
100000000000200000001000100000000000200000000000,
|
|
100000000000200000001000100000000000200000000000,
|
|
300000000000000000000000300000000000000000003000,
|
|
000000000000200000000000000000002000200000000000,
|
|
100000000000200000000000100000000000200000001000,
|
|
000000000000200000000000000000002000200000000000,
|
|
300000000000000000000000300000000000000000003000,
|
|
000000000000200000000000000000002000200000000000,
|
|
100000000000200000000000100000000000200000001000,
|
|
000000000000200000000000000000002000200000000000,
|
|
#GOGOEND
|
|
|
|
|
|
#END
|
|
|
|
|
|
COURSE:Normal
|
|
LEVEL:3
|
|
BALLOON:11,11
|
|
SCOREINIT:850
|
|
SCOREDIFF:230
|
|
|
|
|
|
#START
|
|
|
|
|
|
#SCROLL 1.01
|
|
100000000000100000000000100000000000000000000000,
|
|
#BPMCHANGE 138.07
|
|
#SCROLL 0.99
|
|
100000000000100000000000100000000000000000000000,
|
|
#BPMCHANGE 138.02
|
|
100000000000100000000000100000000000000000000000,
|
|
#BPMCHANGE 138.12
|
|
100000000000100000000000100000000000000000000000,
|
|
#BPMCHANGE 136.8
|
|
#SCROLL 1
|
|
100000000000400000000000000000000000000000000000,
|
|
#BPMCHANGE 137.46
|
|
100000000000400000000000000000000000000000000000,
|
|
100000000000400000000000000000000000000000000000,
|
|
100000000000400000000000000000000000000000000000,
|
|
100000000000200000000000100000000000000000000000,
|
|
100000000000200000000000100000000000000000000000,
|
|
100000000000200000000000100000000000100000000000,
|
|
100000000000200000000000100000000000000000000000,
|
|
100000000000200000000000100000000000000000000000,
|
|
100000000000200000000000100000000000000000000000,
|
|
100000000000200000000000100000000000100000000000,
|
|
100000000000200000000000100000000000000000000000,
|
|
100000000000200000000000100000000000200000000000,
|
|
100000000000100000000000100000000000000000000000,
|
|
100000000000200000000000100000000000200000000000,
|
|
100000000000200000000000100000000000000000000000,
|
|
100000000000200000000000100000000000200000000000,
|
|
100000000000100000000000200000000000000000000000,
|
|
100000000000200000000000100000000000200000000000,
|
|
100000000000000000000000000000000000000000000000,
|
|
100000000000200000000000100000000000100000000000,
|
|
100000000000200000000000100000000000000000000000,
|
|
100000000000200000000000100000000000100000000000,
|
|
100000000000200000000000100000000000000000000000,
|
|
100000000000200000000000100000000000100000000000,
|
|
100000000000200000000000100000000000000000000000,
|
|
100000000000200000000000100000000000100000000000,
|
|
100000000000200000000000100000000000000000000000,
|
|
100000000000200000000000100000000000200000000000,
|
|
100000000000100000000000100000000000000000000000,
|
|
100000000000200000000000100000000000200000000000,
|
|
100000000000200000000000100000000000000000000000,
|
|
100000000000200000000000100000000000200000000000,
|
|
100000000000100000000000200000000000000000000000,
|
|
100000000000200000000000100000000000200000000000,
|
|
100000000000000000000000000000000000000000000000,
|
|
#GOGOSTART
|
|
100000000000200000000000100000000000200000000000,
|
|
000000000000100000000000200000000000100000000000,
|
|
700000000000000000000000000000000000000000000000,
|
|
800000000000000000000000000000000000000000000000,
|
|
000000000000000010000000100000000000100000000000,
|
|
000000000000000010000000100000000000100000000000,
|
|
000000000000000020000000200000000000200000000000,
|
|
000000000000000020000000200000000000200000000000,
|
|
100000000000200000000000100000000000200000000000,
|
|
000000000000100000000000200000000000100000000000,
|
|
700000000000000000000000000000000000000000000000,
|
|
000000800000000000000000000000000000000000000000,
|
|
000000000000000010000000100000000000100000000000,
|
|
000000000000000020000000200000000000200000000000,
|
|
300000000000000000000000300000000000000000003000,
|
|
000000000000000000000000000000000000000000000000,
|
|
100000000000000000000000200000000000100000001000,
|
|
000000000000000000000000000000000000000000000000,
|
|
300000000000000000000000300000000000000000003000,
|
|
000000000000000000000000000000000000000000000000,
|
|
100000000000000000000000200000000000100000001000,
|
|
000000000000000000000000000000000000400000000000,
|
|
#GOGOEND
|
|
|
|
|
|
#END
|
|
|
|
|
|
COURSE:Easy
|
|
LEVEL:3
|
|
BALLOON:8,8
|
|
SCOREINIT:710
|
|
SCOREDIFF:200
|
|
|
|
|
|
#START
|
|
|
|
|
|
#SCROLL 1.01
|
|
100000000000000000000000100000000000000000000000,
|
|
#BPMCHANGE 138.07
|
|
#SCROLL 0.99
|
|
100000000000100000000000100000000000000000000000,
|
|
#BPMCHANGE 138.02
|
|
100000000000000000000000100000000000000000000000,
|
|
#BPMCHANGE 138.12
|
|
100000000000100000000000100000000000000000000000,
|
|
#BPMCHANGE 136.8
|
|
#SCROLL 1
|
|
100000000000200000000000000000000000000000000000,
|
|
#BPMCHANGE 137.46
|
|
100000000000100000000000000000000000000000000000,
|
|
100000000000200000000000000000000000000000000000,
|
|
100000000000100000000000000000000000000000000000,
|
|
100000000000200000000000000000000000000000000000,
|
|
100000000000100000000000100000000000000000000000,
|
|
200000000000200000000000200000000000000000000000,
|
|
100000000000100000000000100000000000000000000000,
|
|
100000000000200000000000000000000000000000000000,
|
|
100000000000100000000000100000000000000000000000,
|
|
200000000000200000000000200000000000000000000000,
|
|
100000000000100000000000100000000000000000000000,
|
|
100000000000100000000000100000000000100000000000,
|
|
100000000000000000000000000000000000000000000000,
|
|
100000000000100000000000100000000000100000000000,
|
|
100000000000000000000000000000000000000000000000,
|
|
200000000000200000000000200000000000200000000000,
|
|
200000000000000000000000000000000000000000000000,
|
|
200000000000200000000000200000000000200000000000,
|
|
200000000000000000000000000000000000000000000000,
|
|
100000000000000000000000100000000000000000000000,
|
|
100000000000100000000000100000000000000000000000,
|
|
200000000000200000000000200000000000000000000000,
|
|
100000000000100000000000100000000000000000000000,
|
|
100000000000000000000000100000000000000000000000,
|
|
100000000000100000000000100000000000000000000000,
|
|
200000000000200000000000200000000000000000000000,
|
|
100000000000100000000000100000000000000000000000,
|
|
100000000000200000000000100000000000200000000000,
|
|
100000000000000000000000000000000000000000000000,
|
|
100000000000200000000000100000000000200000000000,
|
|
100000000000000000000000000000000000000000000000,
|
|
100000000000200000000000100000000000200000000000,
|
|
100000000000000000000000000000000000000000000000,
|
|
100000000000200000000000100000000000200000000000,
|
|
100000000000000000000000000000000000000000000000,
|
|
#GOGOSTART
|
|
100000000000200000000000100000000000000000000000,
|
|
100000000000100000000000100000000000000000000000,
|
|
700000000000000000000000000000000000000000000000,
|
|
800000000000000000000000000000000000000000000000,
|
|
100000000000200000000000000000000000000000000000,
|
|
100000000000200000000000000000000000000000000000,
|
|
100000000000200000000000000000000000000000000000,
|
|
100000000000200000000000000000000000000000000000,
|
|
100000000000200000000000100000000000000000000000,
|
|
100000000000100000000000100000000000000000000000,
|
|
700000000000000000000000000000000000000000000000,
|
|
800000000000000000000000000000000000000000000000,
|
|
100000000000200000000000000000000000000000000000,
|
|
100000000000200000000000000000000000000000000000,
|
|
300000000000000000000000300000000000000000003000,
|
|
000000000000000000000000000000000000000000000000,
|
|
100000000000100000000000100000000000100000000000,
|
|
100000000000000000000000000000000000000000000000,
|
|
300000000000000000000000300000000000000000003000,
|
|
000000000000000000000000000000000000000000000000,
|
|
100000000000100000000000100000000000100000000000,
|
|
100000000000000000000000000000000000400000000000,
|
|
#GOGOEND
|
|
|
|
|
|
#END
|
|
|