329 lines
13 KiB
Plaintext
329 lines
13 KiB
Plaintext
//TJADB Project
|
|
TITLE:Ri Bu Luo
|
|
TITLEZH:日不落
|
|
SUBTITLE:--Jolin Tsai -Sunshine in the Rain Rendition-
|
|
BPM:128
|
|
WAVE:Ri Bu Luo.ogg
|
|
OFFSET:-5.733
|
|
DEMOSTART:45.108
|
|
|
|
COURSE:Oni
|
|
LEVEL:5
|
|
BALLOON:16
|
|
SCOREINIT:730
|
|
SCOREDIFF:170
|
|
|
|
|
|
#START
|
|
|
|
|
|
000000000000000000000000000000000000000000000000,
|
|
100000000000200000100100100000100000200000100000,
|
|
100000000000200000100100100000100000200000100000,
|
|
100000000000200000100100100000100000200000000000,
|
|
300000000000200000200000000000200000200000100000,
|
|
100000000000200000000000100000000000200000100000,
|
|
000000100000200000000000100000100000200000000000,
|
|
100000000000200000000000100000100000200000100000,
|
|
000000100000200000100000000000100000200000100000,
|
|
100000000000200000000000100000000000200000100000,
|
|
000000100000200000000000100000100000200000100000,
|
|
100000000000200000200000000000000000200000000000,
|
|
100000000000200000200000000000200000200000000000,
|
|
100000000000200000000000100000000000200000100000,
|
|
000000100000200000000000100000100000200000000000,
|
|
100000000000200000000000100000100000200000100000,
|
|
000000100000200000100000000000100000200000100000,
|
|
100000000000200000000000100000000000200000100000,
|
|
000000100000200000000000100000100000200000100000,
|
|
100000000000200000200000000000000000200000000000,
|
|
100000100000200000100000000000100000200000000000,
|
|
|
|
#GOGOSTART
|
|
300000000000200000100100100000100000200000100000,
|
|
000000100000200000100100100000100000200000100000,
|
|
100000000000200000100100100000100000200000100000,
|
|
000000000000200000100100100000100000200000100000,
|
|
100000000000200000100100100000100000200000100000,
|
|
000000100000200000100100100000200000100000100000,
|
|
100000000000200000100100100000100000200000100000,
|
|
000000100000200000100000000000200000200000100100,
|
|
100000000000200000100000000000200000200000100100,
|
|
100000000000200000100000000000200000200000100000,
|
|
500000000000000000000000000000000008000000000000,
|
|
000000100000200000100000000000200000100000200200,
|
|
100000000000200000100000000000200000100000200200,
|
|
100000000000200000100000000000200000100000100000,
|
|
500000000000000000000000000000000008000000000000,
|
|
|
|
#GOGOEND
|
|
300000000000200000200000000000100000200000000000,
|
|
100000000000200000000000100000000000200000100000,
|
|
000000100000200000000000100000100000200000000000,
|
|
100000000000200000000000100000100000200000100000,
|
|
000000100000200000100000000000100000200000100000,
|
|
100000000000200000000000100000000000200000100000,
|
|
000000100000200000000000100000100000200000100000,
|
|
100000000000200000200000000000000000200000000000,
|
|
100100100000100100100000100100200000200000000000,
|
|
|
|
#GOGOSTART
|
|
300000000000200000100100100000100000200000100000,
|
|
000000100000200000100100100000100000200000100000,
|
|
100000000000200000100100100000100000200000100000,
|
|
000000000000200000100100100000100000200000100000,
|
|
100000000000200000100100100000100000200000100000,
|
|
000000100000200000100100100000200000100000100000,
|
|
100000000000200000100100100000100000200000100000,
|
|
000000100000200000100000000000200000200000100100,
|
|
100000000000200000100000000000200000200000100100,
|
|
100000000000200000100000000000200000200000100000,
|
|
700000000000000000000000000000000000000000000000,
|
|
000000800000000000100000000000200000100000200200,
|
|
100000000000200000100000000000200000100000200200,
|
|
100000000000200000100000000000200000100000100000,
|
|
500000000000000000000000000000000008000000000000,
|
|
300000000000000000000000000000000000000000000000,
|
|
|
|
#GOGOEND
|
|
|
|
|
|
#END
|
|
|
|
|
|
COURSE:Hard
|
|
LEVEL:4
|
|
BALLOON:10,10
|
|
SCOREINIT:790
|
|
SCOREDIFF:170
|
|
|
|
|
|
#START
|
|
|
|
|
|
000000000000000000000000000000000000000000000000,
|
|
100000000000200000100100100000000000200000000000,
|
|
100000000000200000100100100000000000200000000000,
|
|
100000000000200000100100100000100000200000000000,
|
|
500000000000000000000000800000000000000000000000,
|
|
100000000000200000000000100000000000200000100000,
|
|
000000100000200000000000100000100000200000000000,
|
|
100000000000200000000000100000000000200000200000,
|
|
000000000000000000000000000000000000000000000000,
|
|
100000000000200000000000100000000000200000100000,
|
|
000000100000200000000000100000100000200000000000,
|
|
100000000000200000200000000000000000200000000000,
|
|
000000000000000000000000000000000000000000000000,
|
|
100000000000200000000000100000000000200000100000,
|
|
000000100000200000000000100000100000200000000000,
|
|
100000000000200000000000100000000000200000200000,
|
|
000000000000000000000000000000000000000000000000,
|
|
100000000000200000000000100000000000200000100000,
|
|
000000100000200000000000100000100000200000000000,
|
|
100000000000200000200000000000000000200000000000,
|
|
700000000000000000000000800000000000000000000000,
|
|
#GOGOSTART
|
|
100000000000200000100100100000000000200000100000,
|
|
000000300000000000100000000000100000200000100000,
|
|
100000000000200000100100100000000000200000200000,
|
|
000000000000000000100000000000100000200000100000,
|
|
100000000000200000100100100000000000200000100000,
|
|
000000300000000000100000000000200000100000100000,
|
|
100000000000200000100100100000000000200000200000,
|
|
000000000000000000100000000000200000200000100000,
|
|
100000000000200000100000000000200000200000100000,
|
|
100000000000200000100000000000200000200000100000,
|
|
500000000000000000000000000000800000000000000000,
|
|
000000000000000000100000000000200000200000200000,
|
|
100000000000200000100000000000200000200000200000,
|
|
100000000000000000100000000000200000200000200000,
|
|
500000000000000000000000000000000000000000000800,
|
|
#GOGOEND
|
|
000000000000000000000000000000000000000000000000,
|
|
100000000000200000000000100000000000200000100000,
|
|
000000100000200000000000100000100000200000000000,
|
|
100000000000200000000000100000000000200000200000,
|
|
000000000000000000000000000000000000000000000000,
|
|
100000000000200000000000100000000000200000100000,
|
|
000000100000200000000000100000100000200000000000,
|
|
100000000000200000200000000000000000200000000000,
|
|
700000000000000000000000800000000000000000000000,
|
|
#GOGOSTART
|
|
100000000000200000100100100000000000200000100000,
|
|
000000300000000000100000000000100000200000100000,
|
|
100000000000200000100100100000000000200000200000,
|
|
000000000000000000100000000000100000200000100000,
|
|
100000000000200000100100100000000000200000100000,
|
|
000000300000000000100000000000200000100000100000,
|
|
100000000000200000100100100000000000200000200000,
|
|
000000000000000000100000000000200000200000100000,
|
|
100000000000200000100000000000200000200000100000,
|
|
100000000000200000100000000000200000200000100000,
|
|
500000000000000000000000000000800000000000000000,
|
|
000000000000000000100000000000200000200000200000,
|
|
100000000000200000100000000000200000200000200000,
|
|
100000000000000000300000000000400000400000000000,
|
|
600000000000000000000000000000800000000000000000,
|
|
300000000000000000000000000000000000000000000000,
|
|
#GOGOEND
|
|
|
|
|
|
#END
|
|
|
|
|
|
COURSE:Normal
|
|
LEVEL:3
|
|
BALLOON:8,8
|
|
|
|
|
|
#START
|
|
|
|
|
|
000000000000000000000000000000000000000000000000,
|
|
100000000000200000000000100000000000000000000000,
|
|
100000000000200000000000100000000000000000000000,
|
|
100000000000200000000000100000000000000000000000,
|
|
500000000000000000000000000080000000000000000000,
|
|
100000000000200000000000100000000000200000000000,
|
|
100000000000000000000000000000000000000000000000,
|
|
100000000000200000000000100000000000200000000000,
|
|
100000000000000000000000000000000000000000000000,
|
|
100000000000200000000000100000000000200000000000,
|
|
100000000000000000000000100000000000100000000000,
|
|
100000000000000000000000000000000000000000000000,
|
|
100000000000000000000000000000000000000000000000,
|
|
100000000000200000000000100000000000200000000000,
|
|
100000000000000000000000000000000000000000000000,
|
|
100000000000200000000000100000000000200000000000,
|
|
100000000000000000000000000000000000000000000000,
|
|
100000000000200000000000100000000000200000000000,
|
|
100000000000000000000000100000000000100000000000,
|
|
100000000000000000000000000000000000000000000000,
|
|
700000000000000000000000000000000800000000000000,
|
|
#GOGOSTART
|
|
100000000000200000000000100000000000200000000000,
|
|
100000100000000000000000200000000000200000000000,
|
|
100000000000200000000000100000000000200000000000,
|
|
100000000000000000000000000000000000000000000000,
|
|
100000000000200000000000100000000000200000000000,
|
|
100000100000000000000000200000000000200000000000,
|
|
100000000000200000000000100000000000200000000000,
|
|
100000000000000000000000000000000000000000000000,
|
|
100000000000000000000000200000000000200000000000,
|
|
100000000000000000000000200000000000200000000000,
|
|
100000000000000000000000000000000000000000000000,
|
|
100000000000000000000000200000000000200000000000,
|
|
100000000000000000000000200000000000200000000000,
|
|
100000000000000000000000200000000000200000000000,
|
|
500000000000000000000000000000000000000000000080,
|
|
#GOGOEND
|
|
000000000000000000000000000000000000000000000000,
|
|
100000000000200000000000100000000000200000000000,
|
|
100000000000000000000000000000000000000000000000,
|
|
100000000000200000000000100000000000200000000000,
|
|
100000000000000000000000000000000000000000000000,
|
|
100000000000200000000000100000000000200000000000,
|
|
100000000000000000000000100000000000100000000000,
|
|
100000000000000000000000000000000000000000000000,
|
|
700000000000000000000000000000000800000000000000,
|
|
#GOGOSTART
|
|
100000000000200000000000100000000000200000000000,
|
|
100000100000000000000000200000000000200000000000,
|
|
100000000000200000000000100000000000200000000000,
|
|
100000000000000000000000000000000000000000000000,
|
|
100000000000200000000000100000000000200000000000,
|
|
100000100000000000000000200000000000200000000000,
|
|
100000000000200000000000100000000000200000000000,
|
|
100000000000000000000000000000000000000000000000,
|
|
100000000000000000000000200000000000200000000000,
|
|
100000000000000000000000200000000000200000000000,
|
|
100000000000000000000000000000000000000000000000,
|
|
100000000000000000000000400000000000400000000000,
|
|
300000000000000000000000400000000000400000000000,
|
|
300000000000000000000000400000000000400000000000,
|
|
600000000000000000000000000000000000000000000008,
|
|
|
|
#GOGOEND
|
|
|
|
|
|
#END
|
|
|
|
|
|
COURSE:Easy
|
|
LEVEL:3
|
|
BALLOON:6,6
|
|
|
|
|
|
#START
|
|
|
|
|
|
000000000000000000000000000000000000000000000000,
|
|
100000000000000000000000000000000000000000000000,
|
|
100000000000000000000000000000000000000000000000,
|
|
100000000000000000000000000000000000000000000000,
|
|
500000000000000000000000000080000000000000000000,
|
|
100000000000100000000000100000000000000000000000,
|
|
200000000000000000000000000000000000000000000000,
|
|
100000000000100000000000100000000000000000000000,
|
|
200000000000000000000000000000000000000000000000,
|
|
100000000000100000000000100000000000000000000000,
|
|
200000000000000000000000100000000000100000000000,
|
|
100000000000000000000000000000000000000000000000,
|
|
000000000000000000000000000000000000000000000000,
|
|
100000000000100000000000100000000000000000000000,
|
|
200000000000000000000000000000000000000000000000,
|
|
100000000000100000000000100000000000000000000000,
|
|
200000000000000000000000000000000000000000000000,
|
|
100000000000100000000000100000000000000000000000,
|
|
200000000000000000000000100000000000100000000000,
|
|
100000000000000000000000000000000000000000000000,
|
|
700000000000000000000000000000000800000000000000,
|
|
#GOGOSTART
|
|
100000000000200000000000100000000000000000000000,
|
|
300000000000000000000000000000000000000000000000,
|
|
100000000000200000000000100000000000000000000000,
|
|
300000000000000000000000000000000000000000000000,
|
|
100000000000200000000000100000000000000000000000,
|
|
300000000000000000000000000000000000000000000000,
|
|
100000000000200000000000100000000000200000000000,
|
|
100000000000000000000000000000000000000000000000,
|
|
100000000000000000000000100000000000000000000000,
|
|
100000000000000000000000200000000000200000000000,
|
|
100000000000000000000000000000000000000000000000,
|
|
000000000000000000000000100000000000000000000000,
|
|
300000000000000000000000100000000000000000000000,
|
|
300000000000000000000000200000000000200000000000,
|
|
500000000000000000000000000000000000000000000080,
|
|
#GOGOEND
|
|
000000000000000000000000000000000000000000000000,
|
|
100000000000100000000000100000000000000000000000,
|
|
200000000000000000000000000000000000000000000000,
|
|
100000000000100000000000100000000000000000000000,
|
|
200000000000000000000000000000000000000000000000,
|
|
100000000000100000000000100000000000000000000000,
|
|
200000000000000000000000100000000000100000000000,
|
|
100000000000000000000000000000000000000000000000,
|
|
700000000000000000000000000000000800000000000000,
|
|
#GOGOSTART
|
|
100000000000200000000000100000000000000000000000,
|
|
300000000000000000000000000000000000000000000000,
|
|
100000000000200000000000100000000000000000000000,
|
|
300000000000000000000000000000000000000000000000,
|
|
100000000000200000000000100000000000000000000000,
|
|
300000000000000000000000000000000000000000000000,
|
|
100000000000200000000000100000000000200000000000,
|
|
100000000000000000000000000000000000000000000000,
|
|
300000000000000000000000100000000000000000000000,
|
|
300000000000000000000000200000000000200000000000,
|
|
300000000000000000000000000000000000000000000000,
|
|
000000000000000000000000300000000000000000000000,
|
|
300000000000000000000000300000000000000000000000,
|
|
300000000000000000000000400000000000400000000000,
|
|
600000000000000000000000000000000000000000000008,
|
|
|
|
#GOGOEND
|
|
|
|
|
|
#END
|
|
|