Files
ESE/01 Pop/Ring a Ding Dong/Ring a Ding Dong.tja
T
2023-01-17 00:45:18 -05:00

345 lines
13 KiB
Plaintext

//TJADB Project
TITLE:Ring a Ding Dong
TITLEJA:Ring a Ding Dong
SUBTITLE:--Kaela Kimura
SUBTITLEJA:TVCM「NTTドコモ」より
BPM:175
WAVE:Ring a Ding Dong.ogg
OFFSET:-1.779
DEMOSTART:55.260
COURSE:Oni
LEVEL:7
BALLOON:4,4,4,4,4,4,4,8
SCOREINIT:680
SCOREDIFF:180
#START
000000000000000000000000200000001000200000000000,
100010001000200000000000100000001000200000001000,
100000000000200000001000000000001000200000000000,
100010001000200000000000100000001000200000001000,
100000000000200000001000000000001000200000000000,
100010001000200000000000100000001000200000001000,
100000002000200000001000100000002000200000000000,
#GOGOSTART
100010001000200000001000100000001000200000000000,
300000000000300000000000300000001000200000000000,
100010001000200000001000200000002000200000000000,
300000000000400000000000300000002000200000000000,
100010001000200000001000100000001000200000000000,
300000000000300000000000300000001000200000000000,
100010001000200000001000200000002000200000000000,
300000000000400000000000300000002000200000000000,
100010001000200000001000100000001000200000001000,
100000001000200000007000000000000000800000000000,
100020002000200000002000100000001000200000002000,
100000001000200000007000000000000000800000000000,
100010001000200000001000100000001000200000001000,
100000001000200000007000000000000000800000000000,
100020002000200000002000100000001000200000002000,
100000001000200000007000000000000000800000000000,
#GOGOEND
100000000000200000002000100000000000200000001000,
100000001000200000002000100000000000200000000000,
100000000000200000002000100000000000200000001000,
100000001000200000002000100000000000200000000000,
100000000000200000002000100000000000200000001000,
100000001000200000002000100000000000200000000000,
100000000000200000002000100000000000200000001000,
100000001000200000002000100000000000200000001000,
100000000000200000002000100000000000200000002000,
100000001000200000001000000000001000200000002000,
100000000000200000002000100000000000200000002000,
100000001000200000001000000000001000200000002000,
100000000000200000002000100000000000200000002000,
100000001000200000001000000000001000200000002000,
100000000000200000002000100000000000200000000000,
100000002000100000002000100000002000100000000000,
#GOGOSTART
100010001000200000001000100000001000200000000000,
300000000000300000000000300000001000200000000000,
100010001000200000001000200000002000200000000000,
300000000000400000000000300000002000200000000000,
100010001000200000001000100000001000200000000000,
300000000000300000000000300000001000200000000000,
100010002000200000001000100000002000200000001000,
200000002000100000002000100000000000000000000000,
100010001000200000001000100000001000200000000000,
300000000000300000000000300000001000200000000000,
100010001000200000001000200000002000200000000000,
300000000000400000000000300000002000200000000000,
100010001000200000001000100000001000200000000000,
300000000000300000000000300000001000200000000000,
100010002000200000001000100000002000200000001000,
200000002000100000002000100000000000000000000000,
100010001000200000001000100000001000200000001000,
100000001000200000007000000000000000800000000000,
100020002000200000002000100000001000200000002000,
100000001000200000007000000000000000800000000000,
100010001000200000001000100000001000200000001000,
100000001000200000007000000000000000800000000000,
100020002000200000002000100000001000200000002000,
100000001000200000007000000000000000000000000008,
#GOGOEND
#END
COURSE:Hard
LEVEL:4
BALLOON:7,5,5,5,5,5,5,5,5
SCOREINIT:820
SCOREDIFF:243
#START
000000000000000000000000000000000000000000000000,
100000001000100000000000100000000000000000000000,
100000000000100000000000100000000000000000000000,
100000001000100000000000100000000000000000000000,
100000000000100000000000100000000000000000000000,
100000001000100000000000100000000000000000000000,
700000000000000000000000000000008000000000000000,
#GOGOSTART
100000001000100000000000100000000000200000000000,
300000000000300000000000300000000000000000000000,
100000001000100000000000100000000000200000000000,
300000000000400000000000300000000000000000000000,
100000001000100000000000100000000000200000000000,
300000000000300000000000300000000000000000000000,
100000001000100000000000100000000000200000000000,
300000000000400000000000300000000000000000000000,
100000001000100000000000100000001000100000000000,
700000000000000000000000000000008000000000000000,
100000001000100000001000100000000000100000000000,
700000000000000000000000000000008000000000000000,
100000001000100000000000100000001000100000000000,
700000000000000000000000000000008000000000000000,
100000001000100000001000100000000000100000000000,
700000000000000000000000000000008000000000000000,
#GOGOEND
100000000000200000000000000000000000200000000000,
100000000000000000000000200000000000000000000000,
100000000000200000000000000000000000200000000000,
100000000000000000000000200000000000000000000000,
100000000000200000000000000000000000200000000000,
100000000000000000000000200000000000000000000000,
100000000000200000000000000000000000200000000000,
100000000000300000000000300000000000300000000000,
100000000000200000000000000000000000200000000000,
100000000000000000001000100000000000100000000000,
100000000000200000000000000000000000200000000000,
100000000000000000001000100000000000100000000000,
100000000000200000000000000000000000200000000000,
100000000000000000001000100000000000100000000000,
100000000000200000000000000000000000200000000000,
300000000000300000000000300000000000000000000000,
#GOGOSTART
100000001000100000000000100000000000200000000000,
300000000000300000000000300000000000000000000000,
100000001000100000000000100000000000200000000000,
300000000000400000000000300000000000000000000000,
100000001000100000000000100000000000200000000000,
300000000000300000000000300000000000000000000000,
300000000000300000000000400000000000400000000000,
600000000000000000008000000000000000000000000000,
100000001000200000000000100000000000200000000000,
300000000000300000000000300000000000000000000000,
100000001000200000000000100000000000200000000000,
300000000000400000000000300000000000000000000000,
100000001000200000000000100000000000200000000000,
300000000000300000000000300000000000000000000000,
300000000000300000000000400000000000400000000000,
600000000000000000008000000000000000000000000000,
100000001000100000000000100000001000100000000000,
700000000000000000000000000000008000000000000000,
100000001000100000001000100000000000100000000000,
700000000000000000000000000000008000000000000000,
100000001000100000000000100000001000100000000000,
700000000000000000000000000000008000000000000000,
100000001000100000001000100000000000100000000000,
700000000000000000000000000000008000000000000000,
#GOGOEND
#END
COURSE:Normal
LEVEL:4
BALLOON:8,8,8,8,8
SCOREINIT:1030
SCOREDIFF:568
#START
000000000000000000000000000000000000000000000000,
100000000000000000000000200000000000000000000000,
100000000000100000000000100000000000000000000000,
100000000000000000000000200000000000000000000000,
100000000000100000000000100000000000000000000000,
700000000000000000000000000000000000000000000000,
000000000000000000000000000000008000000000000000,
#GOGOSTART
300000000000000000000000300000000000000000000000,
300000000000300000000000300000000000000000000000,
300000000000000000000000300000000000000000000000,
300000000000400000000000300000000000000000000000,
300000000000000000000000400000000000000000000000,
300000000000300000000000300000000000000000000000,
300000000000000000000000400000000000000000000000,
300000000000400000000000300000000000000000000000,
600000000000000000000000000000000000000000008000,
000000000000000000000000000000000000000000000000,
500000000000000000000000000000000000000000008000,
000000000000000000000000000000000000000000000000,
600000000000000000000000000000000000000000008000,
000000000000000000000000000000000000000000000000,
500000000000000000000000000000000000000000008000,
000000000000000000000000000000000000000000000000,
#GOGOEND
100000000000000000000000200000000000000000000000,
100000000000000000000000100000000000100000000000,
100000000000000000000000200000000000000000000000,
100000000000000000000000000000000000000000000000,
100000000000000000000000200000000000000000000000,
100000000000000000000000100000000000100000000000,
100000000000000000000000200000000000000000000000,
100000000000000000000000000000000000000000000000,
100000000000200000000000000000000000200000000000,
100000000000200000000000000000000000200000000000,
100000000000200000000000000000000000200000000000,
100000000000000000000000000000000000000000000000,
100000000000200000000000000000000000200000000000,
100000000000200000000000000000000000200000000000,
100000000000200000000000000000000000200000000000,
300000000000300000000000300000000000000000000000,
#GOGOSTART
300000000000000000000000400000000000000000000000,
300000000000300000000000300000000000000000000000,
300000000000000000000000400000000000000000000000,
300000000000400000000000300000000000000000000000,
300000000000000000000000400000000000000000000000,
300000000000300000000000300000000000000000000000,
600000000000000000000000000000000000000000008000,
000000000000000000000000000000000000000000000000,
300000000000300000000000300000000000000000000000,
300000000000400000000000300000000000000000000000,
300000000000300000000000300000000000000000000000,
400000000000400000000000400000000000000000000000,
300000000000300000000000300000000000000000000000,
300000000000400000000000300000000000000000000000,
600000000000000000000000000000000000000000008000,
000000000000000000000000000000000000000000000000,
700000000000000000000000000000000000000000000000,
000000000000000000008000000000000000000000000000,
700000000000000000000000000000000000000000000000,
000000000000000000008000000000000000000000000000,
9,
08,
9,
08,
#GOGOEND
#END
COURSE:Easy
LEVEL:3
BALLOON:6,6,6,6,6
SCOREINIT:700
SCOREDIFF:375
#START
#SCROLL 0.8
000000000000000000000000000000000000000000000000,
100000000000000000000000100000000000000000000000,
100000000000100000000000100000000000000000000000,
100000000000000000000000100000000000000000000000,
100000000000100000000000100000000000000000000000,
700000000000000000000000000000000000000000000000,
000000000000000000000000800000000000000000000000,
#GOGOSTART
300000000000000000000000300000000000000000000000,
300000000000300000000000300000000000000000000000,
300000000000000000000000300000000000000000000000,
300000000000300000000000300000000000000000000000,
300000000000000000000000400000000000000000000000,
300000000000300000000000300000000000000000000000,
300000000000000000000000400000000000000000000000,
300000000000300000000000300000000000000000000000,
600000000000000000000000000000000000800000000000,
000000000000000000000000000000000000000000000000,
500000000000000000000000000000000000800000000000,
000000000000000000000000000000000000000000000000,
600000000000000000000000000000000000800000000000,
000000000000000000000000000000000000000000000000,
500000000000000000000000000000000000800000000000,
000000000000000000000000000000000000000000000000,
#GOGOEND
100000000000000000000000000000000000000000000000,
100000000000000000000000100000000000000000000000,
100000000000000000000000000000000000000000000000,
100000000000000000000000100000000000000000000000,
100000000000000000000000000000000000000000000000,
100000000000000000000000100000000000000000000000,
100000000000000000000000000000000000000000000000,
000000000000000000000000000000000000000000000000,
100000000000000000000000200000000000000000000000,
100000000000000000000000000000000000000000000000,
100000000000000000000000200000000000000000000000,
100000000000000000000000000000000000000000000000,
100000000000000000000000200000000000000000000000,
100000000000000000000000000000000000000000000000,
100000000000000000000000200000000000000000000000,
300000000000300000000000300000000000000000000000,
#GOGOSTART
300000000000000000000000300000000000000000000000,
300000000000300000000000300000000000000000000000,
300000000000000000000000300000000000000000000000,
300000000000300000000000300000000000000000000000,
300000000000000000000000400000000000000000000000,
300000000000300000000000300000000000000000000000,
600000000000000000000000000000000000800000000000,
000000000000000000000000000000000000000000000000,
300000000000300000000000300000000000000000000000,
300000000000300000000000300000000000000000000000,
300000000000300000000000400000000000000000000000,
300000000000300000000000300000000000000000000000,
300000000000300000000000300000000000000000000000,
300000000000300000000000300000000000000000000000,
600000000000000000000000000000000000800000000000,
000000000000000000000000000000000000000000000000,
700000000000000000000000000000000000000000000000,
000000000000000000000000800000000000000000000000,
700000000000000000000000000000000000000000000000,
000000000000000000000000800000000000000000000000,
9,
0008,
9,
0008,
#GOGOEND
#END