321 lines
6.6 KiB
Plaintext
321 lines
6.6 KiB
Plaintext
//TJADB Project
|
|
TITLE:Romantic ga Tomaranai
|
|
TITLEJA:Romanticが止まらない
|
|
SUBTITLE:--C-C-B/Maido Osawagase Shimasu
|
|
BPM:146
|
|
WAVE:Romantic ga Tomaranai.ogg
|
|
OFFSET:-3.676
|
|
DEMOSTART:46.421
|
|
|
|
COURSE:Oni
|
|
LEVEL:6
|
|
SCOREINIT:770
|
|
SCOREDIFF:200
|
|
|
|
|
|
#START
|
|
|
|
|
|
1020202010120120,
|
|
1000102000222020,
|
|
1020202010120210,
|
|
1100220011002200,
|
|
1020202010120120,
|
|
1000102000222020,
|
|
1020202010120210,
|
|
12020222,
|
|
1110201011102010,
|
|
1110201000102020,
|
|
1120000040000000,
|
|
4000202010112000,
|
|
1110201011102010,
|
|
1110201000102020,
|
|
1120000040000000,
|
|
4000102010112000,
|
|
1011222010102020,
|
|
1011222010201020,
|
|
1011222010102020,
|
|
1011222010201020,
|
|
1011222010102020,
|
|
10220114,
|
|
02220114,
|
|
02220033,
|
|
0020222010102000,
|
|
1022222010404040,
|
|
|
|
#GOGOSTART
|
|
1022112010102010,
|
|
03332211,
|
|
1022112010102010,
|
|
03331212,
|
|
1022102010102010,
|
|
1022102210202010,
|
|
0010222010001010,
|
|
0010222010101010,
|
|
1022112010102010,
|
|
03432211,
|
|
1022112010102010,
|
|
03431212,
|
|
1022112010102010,
|
|
01111111,
|
|
21021023,
|
|
|
|
#GOGOEND
|
|
|
|
|
|
#END
|
|
|
|
|
|
COURSE:Hard
|
|
LEVEL:6
|
|
SCOREINIT:840
|
|
SCOREDIFF:230
|
|
|
|
|
|
#START
|
|
|
|
|
|
000000100000100000100000100000100100000100100000,
|
|
100000000000100000200000000000000000000000000000,
|
|
000000100000100000100000100000100100000100100000,
|
|
100100000000200200000000100100000000200200000000,
|
|
000000100000100000100000100000100100000100100000,
|
|
100000000000100000200000000000000000000000000000,
|
|
000000100000100000100000100000100100000100100000,
|
|
100000200000000000200000000000200000200000000000,
|
|
100000100000200000100000100000000000200000200000,
|
|
100000100000200000100000000000200000200000200000,
|
|
100000100000000000000000400000000000000000000000,
|
|
400000000000100000000000100000200200200000000000,
|
|
100000100000200000100000100000000000200000200000,
|
|
100000100000200000100000000000200000200000200000,
|
|
100000100000000000000000400000000000000000000000,
|
|
400000000000100000000000100000100100100000000000,
|
|
100000100000200000200000100000100000200000200000,
|
|
100000100000200000200000100000200000100000200000,
|
|
100000100000200000200000100000100000200000200000,
|
|
100000100000200000200000100000200000100000200000,
|
|
100000100000200000200000100000100000200000200000,
|
|
100000100000200000200000000000100000100000200000,
|
|
000000200000200000200000000000100000100000200000,
|
|
000000200000200000200000000000000000300000300000,
|
|
000000000000000000000000100000100000200000000000,
|
|
100000000000200000000000100000200000200000200000,
|
|
#GOGOSTART
|
|
100000000000100000000000100000100000200000100000,
|
|
000000300000300000000000400000000000300000000000,
|
|
100000000000200000000000100000100000200000100000,
|
|
000000300000300000000000400000000000300000000000,
|
|
100000200200200000200000100000100000200000100000,
|
|
100000200200200000200000100000200000200000100000,
|
|
000000100000200000000000100000000000100000200000,
|
|
000000200000100000000000100000100000100000100000,
|
|
100000000000100000000000100000100000200000100000,
|
|
000000100000100000100000200000200000100000100000,
|
|
100000000000200000000000100000100000200000100000,
|
|
000000100000100000100000200000200000100000100000,
|
|
100000200200200000200000100000100000200000100000,
|
|
000000100000100000000000100000100000100000100000,
|
|
200000100000000000100000100000000000100000300000,
|
|
#GOGOEND
|
|
|
|
|
|
#END
|
|
|
|
|
|
COURSE:Normal
|
|
LEVEL:5
|
|
BALLOON:16,8,8
|
|
SCOREINIT:1340
|
|
SCOREDIFF:410
|
|
|
|
|
|
#START
|
|
|
|
|
|
01111000,
|
|
10110000,
|
|
01111000,
|
|
1212,
|
|
01111000,
|
|
10110000,
|
|
01111000,
|
|
500000000000000000000000000000000008000000000000,
|
|
|
|
#SECTION
|
|
#BRANCHSTART p,40,60
|
|
#N
|
|
1111,
|
|
0011,
|
|
04,
|
|
4120,
|
|
1111,
|
|
0011,
|
|
04,
|
|
4120,
|
|
10220000,
|
|
10110000,
|
|
10220000,
|
|
10110000,
|
|
10220000,
|
|
10110003,
|
|
00000004,
|
|
00000033,
|
|
0012,
|
|
,
|
|
|
|
#E
|
|
10101011,
|
|
00001011,
|
|
04,
|
|
40111000,
|
|
10101011,
|
|
00001011,
|
|
04,
|
|
40111000,
|
|
10220020,
|
|
10110000,
|
|
10220020,
|
|
10110000,
|
|
10220020,
|
|
10110003,
|
|
00000004,
|
|
00000033,
|
|
00001120,
|
|
0202,
|
|
|
|
#M
|
|
11101011,
|
|
00001111,
|
|
04,
|
|
40112000,
|
|
11101011,
|
|
00001111,
|
|
04,
|
|
40112000,
|
|
10220020,
|
|
10110000,
|
|
10220020,
|
|
10110000,
|
|
10220020,
|
|
10110003,
|
|
00000004,
|
|
00000033,
|
|
00001120,
|
|
00200220,
|
|
|
|
#GOGOSTART
|
|
#SECTION
|
|
#BRANCHSTART p,40,60
|
|
#N
|
|
2200,
|
|
20200007,
|
|
,
|
|
0008,
|
|
1110,
|
|
01011000,
|
|
2220,
|
|
01011000,
|
|
20200006,
|
|
000000000000000000000000000000000000000008000000,
|
|
01001011,
|
|
|
|
#E
|
|
1110,
|
|
01101010,
|
|
2220,
|
|
01101010,
|
|
00220000,
|
|
00220001,
|
|
01101070,
|
|
0008,
|
|
1110,
|
|
01011010,
|
|
2220,
|
|
01011010,
|
|
00220006,
|
|
000000000000000000000000000000000000000008000000,
|
|
01011011,
|
|
|
|
#M
|
|
1120,
|
|
01101010,
|
|
2120,
|
|
01101010,
|
|
10220001,
|
|
00220001,
|
|
01101070,
|
|
0008,
|
|
1120,
|
|
01011010,
|
|
1210,
|
|
01011010,
|
|
10220006,
|
|
000000000000000000000000000000000000000008000000,
|
|
01011011,
|
|
|
|
#BRANCHEND
|
|
#GOGOEND
|
|
|
|
|
|
#END
|
|
|
|
|
|
COURSE:Easy
|
|
LEVEL:3
|
|
BALLOON:14
|
|
SCOREINIT:1300
|
|
SCOREDIFF:730
|
|
|
|
|
|
#START
|
|
|
|
|
|
100000000000000000000000100000000000000000000000,
|
|
100000000000000000000000000000000000000000000000,
|
|
100000000000000000000000100000000000000000000000,
|
|
100000000000100000000000100000000000100000000000,
|
|
100000000000000000000000100000000000000000000000,
|
|
100000000000000000000000000000000000000000000000,
|
|
100000000000000000000000100000000000000000000000,
|
|
500000000000000000000000000080000000000000000000,
|
|
100000000000000000000000100000000000100000000000,
|
|
000000000000000000000000200000000000200000000000,
|
|
000000000000000000000000300000000000000000000000,
|
|
300000000000000000000000000000000000000000000000,
|
|
100000000000000000000000100000000000100000000000,
|
|
000000000000000000000000200000000000200000000000,
|
|
000000000000000000000000300000000000000000000000,
|
|
300000000000000000000000000000000000000000000000,
|
|
100000000000200000000000000000000000000000000000,
|
|
100000000000100000000000000000000000000000000000,
|
|
100000000000200000000000000000000000000000000000,
|
|
100000000000100000000000000000000000000000000000,
|
|
100000000000200000000000000000000000000000000000,
|
|
100000000000100000000000000000000000000000300000,
|
|
000000000000000000000000000000000000000000400000,
|
|
000000000000000000000000000000000000300000300000,
|
|
000000000000000000000000000000000000000000000000,
|
|
000000000000000000000000000000000000000000000000,
|
|
#GOGOSTART
|
|
100000000000100000000000100000000000000000000000,
|
|
000000000000000000000000300000000000000000000000,
|
|
200000000000200000000000200000000000000000000000,
|
|
000000000000000000000000400000000000000000000000,
|
|
100000000000000000000000200000000000000000000000,
|
|
100000000000000000000000200000000000000000700000,
|
|
000000000000000000000000000000000000000000000000,
|
|
000000000000000000000000000000800000000000000000,
|
|
100000000000100000000000100000000000000000000000,
|
|
000000000000000000000000300000000000000000000000,
|
|
200000000000200000000000200000000000000000000000,
|
|
000000000000000000000000400000000000000000000000,
|
|
100000000000000000000000200000000000000000500000,
|
|
000000000000000000000000000080000000000000000000,
|
|
100000000000000000000000000000000000300000000000,
|
|
#GOGOEND
|
|
|
|
|
|
#END
|
|
|