Files
ESE/01 Pop/SEVENTH HEAVEN/SEVENTH HEAVEN.tja
T
2023-06-15 19:15:39 -05:00

314 lines
10 KiB
Plaintext
Raw Blame History

This file contains ambiguous Unicode characters
This file contains Unicode characters that might be confused with other characters. If you think that this is intentional, you can safely ignore this warning. Use the Escape button to reveal them.
//TJADB Project
TITLE:SEVENTH HEAVEN
TITLEJA:SEVENTH HEAVEN
SUBTITLE:--L’Arc~en~ciel/Sports Urugusu
BPM:130
WAVE:SEVENTH HEAVEN.ogg
OFFSET:-2.016
DEMOSTART:61.977
COURSE:Oni
LEVEL:7
SCOREINIT:590
SCOREDIFF:140
#START
1,
2,
1111,
1111,
1111,
1111,
100000000000000100100000100100000100101010101010,
1000201011102010,
1000201011102110,
1000201011102010,
1000201012102111,
1000201011102010,
1000201011102110,
1000201011102010,
1000201011112211,
1000201011102010,
1010201011102011,
1000201011102011,
1010201110201110,
1000201011102010,
1010201011102011,
1000201011102011,
1010201110201110,
1011201011202210,
1011201011202210,
1011201011202210,
1011201121202210,
1011201011202210,
1011201011202210,
1020102011201120,
1020102022112010,
500000000008000000400000400000400000300000300000,
1122112040004000,
#GOGOSTART
3000201012102110,
1000201012102210,
1000201022102210,
1000201011221210,
1000201012102110,
1000201012102210,
1000201022102210,
1000201011221210,
3011201012102110,
1011201012102210,
1011221022102210,
1011201011221210,
1011201012102110,
1011201012102210,
1011221022102210,
1022102212221111,
11020102,
01221001,
01101020,
11020102,
01221011,
01121020,
11020102,
01221011,
0000000000001111,
#GOGOEND
1,
#END
COURSE:Hard
LEVEL:5
BALLOON:8
SCOREINIT:650
SCOREDIFF:170
#START
100000000000000000000000000000000000000000000000,
200000000000000000000000000000000000000000000000,
100000000000100000000000100000000000100000000000,
100000000000200000200000000000100000200000000000,
100000000000200000200000000000100000200000000000,
100000000000200000200000000000100000200000000000,
700000000000000000000000000000800000000000000000,
300000000000200000200000000000100000200000000000,
100000000000200000200000000000100000200000000000,
100000000000200000200000000000100000200000000000,
100000000000200000200000100000100000200000000000,
100000000000200000200000000000100000200000000000,
100000000000200000200000000000100000200000000000,
100000000000200000200000000000100000200000000000,
100000000000200000200000100000100000200000000000,
100000000000200000100000000000100000200000100000,
100000000000200000100000000000100000200000000000,
100000000000200000100000000000100000200000100000,
100000000000200000100000200000200000100100100000,
100000000000200000100000000000100000200000000000,
100000000000200000100000000000100000200000100000,
100000000000200000100000000000100000200000000000,
100000000000200000100000200000200000100100100000,
100000100000200000100000000000100000200000000000,
100000100000200000100000000000100000200000100000,
000000100000200000100000000000100000200000000000,
100000100000200000100000100100100000200200200000,
100000100000200000100000000000100000200000000000,
100000100000200000100000000000100000200000100000,
000000200000200000100000200000100000000000100000,
000000100000200000200000100000200000000000500000,
000000000000000000000000800000000000000000000000,
100100200000100100200000100000000000200000000000,
#GOGOSTART
300000000000200000100000100000200000100100100000,
100000000000200000000000200000000000200000000000,
100000000000200000100000000000100000200200200000,
100000000000200000000000100000200000000000100000,
100000000000200000100000100000200000100100100000,
100000000000200000000000200000000000200000000000,
100000000000200000100000000000100000200200200000,
100000000000200000000000100000100000200000000000,
300000000000200000100000100000200000100100100000,
100000000000200000000000200000000000200000000000,
100000000000200000100000000000100000200200200000,
100000000000200000000000100000200000000000100000,
100000000000200000100000100000200000100100100000,
100000000000200000000000200000000000200000000000,
100000000000200000100000000000100000200200200000,
000000100000200000200000100000000000200000100000,
100000100000000000200000000000200000000000300000,
000000100000200000100000100000000000200000100000,
000000100000200000100000100000000000200000000000,
100000100000000000200000000000200000000000300000,
000000100000200000100000100000000000200000100000,
000000100000100000200000100000000000200000000000,
100000100000000000200000000000200000000000300000,
000000100000200000200000100000000000300000300000,
000000000000000000000000000000000000100100100100,
#GOGOEND
100000000000000000000000000000000000000000000000,
#END
COURSE:Normal
LEVEL:5
BALLOON:8,8
SCOREINIT:1120
SCOREDIFF:300
#START
100000000000000000000000000000000000000000000000,
200000000000000000000000000000000000000000000000,
100000000000000000000000100000000000000000000000,
100000000000000000000000000000000000100000000000,
100000000000000000000000000000000000100000000000,
100000000000000000000000100000000000000000000000,
700000000000000000000000000000800000000000000000,
300000000000100000100000000000000000200000000000,
100000000000100000100000000000000000000000000000,
100000000000100000100000000000000000200000000000,
100000000000100000100000000000200000200000000000,
100000000000100000100000000000000000200000000000,
100000000000100000100000000000000000000000000000,
100000000000100000100000000000000000200000000000,
100000000000100000100000000000200000200000000000,
100000000000200000000000000000100000100000000000,
100000000000200000000000000000100000100000000000,
100000000000200000000000000000100000100000000000,
100000000000000000000000000000000000000000000000,
100000000000200000000000000000100000100000000000,
100000000000200000000000000000100000100000000000,
100000000000200000000000000000100000100000000000,
100000000000000000000000000000000000000000000000,
100000000000200000000000000000100000200000000000,
100000000000200000000000000000100000200000000000,
100000000000200000000000000000100000200000000000,
100000000000200000000000000000000000000000000000,
100000000000200000000000000000100000200000000000,
100000000000200000000000000000100000200000000000,
100000000000100000000000100000000000000000000000,
100000000000100000000000100000100000000000000000,
500000000000000000000000000000000000000000800000,
000000000000000000000000000000000000000000000000,
#GOGOSTART
300000000000200000000000000000100000200000000000,
100000000000200000000000200000000000200000000000,
100000000000000000000000000000000000000000000000,
100000000000100000000000100000200000000000100000,
200000000000000000000000000000000000200000000000,
100000000000200000000000000000100000200000000000,
100000000000100000200000000000000000000000000000,
000000000000000000000000000000000000000000000000,
300000000000200000000000000000100000200000000000,
100000000000200000000000200000000000200000000000,
100000000000000000000000000000000000000000000000,
100000000000100000000000100000200000000000100000,
200000000000000000000000000000000000200000000000,
100000000000200000000000000000100000200000000000,
100000000000500000000000000000000000800000000000,
000000100000200000000000200000000000000000000000,
100000100000000000200000000000200000000000500000,
000000000000000000000000000000000000800000000000,
000000000000000000000000000000000000000000000000,
100000100000000000200000000000200000000000500000,
000000000000000000000000000000000000800000000000,
000000000000000000000000000000000000000000000000,
100000100000000000200000000000200000000000300000,
000000000000000000000000000000000000000000000000,
700000000000000000000000000000800000000000000000,
#GOGOEND
300000000000000000000000000000000000000000000000,
#END
COURSE:Easy
LEVEL:4
BALLOON:6,6
SCOREINIT:830
SCOREDIFF:240
#START
100000000000000000000000000000000000000000000000,
200000000000000000000000000000000000000000000000,
100000000000000000000000100000000000000000000000,
100000000000000000000000000000000000100000000000,
100000000000000000000000000000000000100000000000,
100000000000000000000000100000000000000000000000,
700000000000000000000000000000800000000000000000,
300000000000000000000000200000000000000000000000,
100000000000100000000000000000000000000000000000,
100000000000000000000000200000000000000000000000,
100000000000100000000000000000000000000000000000,
300000000000000000000000200000000000000000000000,
100000000000100000000000000000000000000000000000,
100000000000000000000000200000000000000000000000,
100000000000100000000000000000000000000000000000,
100000000000100000000000000000000000200000000000,
100000000000000000000000100000000000000000000000,
100000000000100000000000000000000000200000000000,
100000000000000000000000000000000000000000000000,
100000000000100000000000000000000000200000000000,
100000000000000000000000100000000000000000000000,
100000000000100000000000000000000000200000000000,
100000000000000000000000000000000000000000000000,
100000000000200000000000000000000000200000000000,
100000000000000000000000100000000000000000000000,
100000000000200000000000000000000000200000000000,
100000000000000000000000100000000000000000000000,
100000000000200000000000000000000000200000000000,
100000000000000000000000100000000000000000000000,
100000000000100000000000100000000000000000000000,
100000000000100000000000100000000000000000000000,
500000000000000000000000000000000000000000800000,
000000000000000000000000000000000000000000000000,
#GOGOSTART
100000000000200000000000000000000000200000000000,
100000000000100000000000100000000000100000000000,
500000000000000000000000800000000000000000000000,
100000000000000000000000100000000000000000000000,
100000000000200000000000000000000000200000000000,
100000000000200000000000000000000000200000000000,
100000000000000000000000100000000000000000000000,
100000000000000000000000100000000000100000000000,
100000000000200000000000000000000000200000000000,
100000000000100000000000100000000000100000000000,
500000000000000000000000800000000000000000000000,
100000000000000000000000100000000000000000000000,
100000000000200000000000000000000000200000000000,
100000000000200000000000000000000000200000000000,
100000000000000000000000100000000000000000000000,
100000000000000000000000100000000000100000000000,
100000000000000000100000000000100000000000500000,
000000000000000000000000000000000000000000800000,
000000000000000000000000300000000000300000000000,
100000000000000000100000000000100000000000500000,
000000000000000000000000000000000000000000800000,
000000000000000000000000300000000000300000000000,
100000000000000000100000000000100000000000300000,
000000000000000000000000000000000000000000000000,
700000000000000000000000000000800000000000000000,
#GOGOEND
300000000000000000000000000000000000000000000000,
#END