Files
ESE/01 Pop/SHAKE/SHAKE.tja
T
2023-06-15 19:15:39 -05:00

258 lines
10 KiB
Plaintext
Raw Blame History

This file contains ambiguous Unicode characters
This file contains Unicode characters that might be confused with other characters. If you think that this is intentional, you can safely ignore this warning. Use the Escape button to reveal them.
//TJADB Project
TITLE:SHAKE
TITLEJA:SHAKE
SUBTITLE:--SMAP/SMAP×SMAP
BPM:130
WAVE:SHAKE.ogg
OFFSET:-3.843
DEMOSTART:7.535
COURSE:Oni
LEVEL:8
BALLOON:22,24
#START
000000000000000000000000700000000000000000000000,
000000000000000000000000000000000000000000800000,
100100000100000000200000100100000100000000200000,
100100000100000100100000100100000100000000200000,
100100000100000000200000100100000100000000200000,
100100000100000100100000100100000100000000200000,
100100200100000000200000100100200100000000200000,
100100200100000100200100100100200100000000200000,
100100200100000000200000100100200100000000200000,
300000300000000000200000100100200100000000000000,
000000200000100000200100000100200000100000200000,
100000200000100000200000100000200100000100200000,
100000200000100000200100000100200000100000200000,
100000200000100000200000100000100200000100200000,
300000200000100000200100000100200000100000200000,
100000200000100000200100000100200000100000200000,
500000000000000000000008000000000000000000000000,
000000000000000000000000000000000000000000000000,
000000200000100000200100000100200000100100200000,
100000200000100000200000100000100200000100200000,
100000200000100000200100000100200000100100200000,
100000200000100000200000100000100200000100200000,
300000200000100000200100000100200000100100200000,
100000200000100000200100000100200000100000200000,
500000000000000000000000000008000000000000000000,
300000300000000000200000100100200100000000000000,
500000000000000000000000000000000000000008000000,
300000100100000100000300000000100000100000200100,
100000100000200000100100200000200100000100200100,
100000100000200000100100200000200100000100200000,
500000000000000000000000000000000000000008000000,
100000100100000100000100000000100000100000200000,
300000100000200000000000200000100100200000200100,
100000100000100000700000000000000000000000000000,
000000000000000000000000000000000000000000800000,
300000000000300000000000000000200100100000200000,
100000200100000100200000100100000100000100100000,
300000000000300000000000100000200000100000200000,
100000200100000100200000100100000100000100100000,
300000000000300000000000400000200100100000200000,
100000200100000100200000100100000100000100100000,
100000200000100100100000100100200000100100200000,
100000200000100100200000100000200100000100200000,
100000200000100100100000100100200000100100200000,
500000000000000000000000000000000000000008000000,
100100200100000100200100100100200100000000200000,
100100200100000000200000100100200100000000600000,
000000000000000000000000000000000008000000000000,
#END
COURSE:Hard
LEVEL:5
BALLOON:18,20
SCOREINIT:900
SCOREDIFF:220
#START
000000000000000000000000700000000000000000000000,
000000000000000000000000000000000000800000000000,
100100000100000000000000100100000100000000000000,
100100000100000100100000100100000100000000000000,
100100000100000000000000100100000100000000000000,
100100000100000100100000100100000100000000000000,
100100000100000000200000100100000100000000200000,
100100000100000100100000100100000100000000200000,
100100000100000000200000100100000100000000200000,
300000300000000000200000100000100100000000000000,
000000100000100000100100000100100000200000200000,
000000100000100000200000100000100100000100100000,
000000100000100000100100000100100000200000200000,
000000100000100000200000100000100100000100100000,
000000100000100000200000100000100000200000200000,
100000200000100000200000100000200000100000000000,
500000000000000000000000000800000000000000000000,
000000000000000000000000000000000000000000000000,
000000100000100000100100000100100000200000200000,
000000100000100000200000100000100100000100100000,
000000100000100000100100000100100000200000200000,
000000100000100000200000100000100100000100100000,
000000100000100000200000100000100000200000200000,
100000200000100000200000100000200000100000000000,
500000000000000000000000000000000800000000000000,
300000300000000000200000100000100100000000000000,
500000000000000000000000000000000000000800000000,
300000000000000000000000300000000000100100100000,
100000100000100000000000100000100100000100100000,
100000100000100000000000100000100100000100100000,
500000000000000000000000000000000000000800000000,
100000100100000100000100000000000000100000000000,
300000000000000000000000000000100000200000100000,
200000100000100000700000000000000000000000000000,
000000000000000000000000000000000000000800000000,
300000000000300000000000000000100000000000100000,
100000100100000100100000000000000000000000000000,
300000000000300000000000100000200000100000200000,
100000100100000100100000000000000000000000000000,
300000000000300000000000000000100000000000100000,
100000100100000100100000000000000000000000000000,
100000100000200000200000100000200000100000000000,
100000100000100100100000100000100100000100100000,
100000100000200000200000100000200000100000000000,
500000000000000000000000000000000000000800000000,
100100000100000100100000100100000100000000200000,
100100000100000000200000100100000100000000500000,
000000000000000000000000000000000800000000000000,
#END
COURSE:Normal
LEVEL:4
BALLOON:12,11
SCOREINIT:1130
SCOREDIFF:350
#START
000000000000000000000000700000000000000000000000,
000000000000000000000000000000000000800000000000,
100000000000100000000000100000000000000000000000,
100000100000100000000000100000000100000000000000,
100000000000100000000000100000000000000000000000,
100000100000100000000000100000000100000000000000,
100000000000100000000000100000000000200000000000,
100000100000100000000000100000000100000000000000,
100000000000100000000000100000000000200000000000,
100000100000000000000000300000000000000000000000,
000000100000100000000000100000000000100000100000,
000000100000100000000000100000000000100000100000,
000000100000100000000000100000000000100000100000,
000000100000100000000000100000000000100000100000,
000000100000100000000000100000000000100000100000,
100000000000100000000000100000000000100000000000,
500000000000000000000000000800000000000000000000,
000000000000000000000000000000000000000000000000,
000000100000100000000000100000000000100000100000,
000000100000100000100000100000000000100000100000,
000000100000100000000000100000000000100000100000,
000000100000100000100000100000000000100000100000,
000000100000100000000000100000000000100000100000,
100000000000100000000000100000000000100000000000,
500000000000000000000000000000000800000000000000,
100000100000000000000000300000000000000000000000,
500000000000000000000000000000000800000000000000,
300000000000000000000000300000000000000000000000,
100000100000100000000000200000000000200000000000,
100000100000100000000000200000000000200000000000,
500000000000000000000000000000000800000000000000,
100000100000000000000000100000000000100000000000,
300000000000000000000000000000100000100000100000,
100000000000000000700000000000000000000000000000,
000000000000000000000000000000000000000800000000,
300000000000300000000000000000100000000000100000,
100000000100000000100000000000000000000000000000,
300000000000300000000000100000000000100000000000,
100000000100000000100000000000000000000000000000,
300000000000300000000000000000100000000000100000,
100000000100000000100000000000000000000000000000,
200000200000200000000000100000100000100000000000,
500000000000000000000000000000000800000000000000,
200000200000200000000000100000100000100000000000,
500000000000000000000000000000000800000000000000,
100000000000100000000000100000000000200000000000,
100000100000100000000000100000000100000000500000,
000000000000000000000000000000000800000000000000,
#END
COURSE:Easy
LEVEL:3
SCOREINIT:1460
SCOREDIFF:690
#START
000000000000000000000000000000000000000000000000,
000000000000000000000000000000000000000000000000,
100000000000000000000000100000000000000000000000,
100000000000100000000000100000000000000000000000,
100000000000000000000000100000000000000000000000,
100000000000100000000000100000000000000000000000,
100000000000000000000000100000000000000000000000,
200000000000200000000000200000000000000000000000,
100000000000000000000000100000000000000000000000,
100000000000000000000000300000000000000000000000,
000000000000100000000000000000000000100000000000,
000000000000100000000000100000000000100000000000,
000000000000100000000000000000000000100000000000,
000000000000100000000000100000000000100000000000,
000000000000100000000000000000000000100000000000,
100000000000000000000000100000000000000000000000,
500000000000000000800000000000000000000000000000,
000000000000000000000000000000000000000000000000,
000000000000100000000000000000000000100000000000,
000000000000100000000000100000000000100000000000,
000000000000100000000000000000000000100000000000,
000000000000100000000000100000000000100000000000,
000000000000100000000000000000000000100000000000,
100000000000000000000000100000000000000000000000,
500000000000000000000000800000000000000000000000,
100000000000000000000000300000000000000000000000,
500000000000000000000000000000800000000000000000,
300000000000000000000000300000000000000000000000,
100000000000100000000000200000000000000000000000,
100000000000100000000000200000000000000000000000,
500000000000000000000000000000800000000000000000,
300000000000000000000000300000000000000000000000,
100000000000100000000000200000000000000000000000,
100000000000000000500000000000000000000000000000,
000000000000000000800000000000000000000000000000,
300000000000300000000000000000000000000000000000,
100000000100000000100000000000000000000000000000,
100000000000100000000000100000000000000000000000,
100000000100000000100000000000000000000000000000,
300000000000300000000000000000000000000000000000,
100000000100000000100000000000000000000000000000,
200000000000200000000000100000000000100000000000,
500000000000000000000000000000000800000000000000,
200000000000200000000000100000000000100000000000,
500000000000000000000000000000000800000000000000,
100000000000100000000000100000000000000000000000,
300000000000000000000000300000000000000000500000,
000000000000000000000000000000000800000000000000,
#END