Files
ESE/01 Pop/Sakura (Kobukuro)/Sakura.tja
T
2023-06-15 19:15:39 -05:00

406 lines
13 KiB
Plaintext
Raw Blame History

This file contains ambiguous Unicode characters
This file contains Unicode characters that might be confused with other characters. If you think that this is intentional, you can safely ignore this warning. Use the Escape button to reveal them.
//TJADB Project
TITLE:Sakura
TITLEJA:桜
SUBTITLE:--Kobukuro/Ns’Aoi
SUBTITLEJA:東方Projectアレンジ SOUND HOLIC feat.Nana Takahashi
BPM:83.94
WAVE:Sakura.ogg
OFFSET:-6.797
DEMOSTART:95.342
COURSE:Oni
LEVEL:6
SCOREINIT:710
SCOREDIFF:180
#START
100000000000100000000000100000000000100000000000,
500000000000000008000000300000000000100000100000,
200000000000100000100000100100200200100100200000,
#MEASURE 2/4
300000300000300000000000,
#MEASURE 4/4
#BPMCHANGE 83.51
#SCROLL 1.00514908394
100000100100200000100100100000100100200000200000,
#BPMCHANGE 83.99
#SCROLL 0.99940469103
100000100100200000100100100000100100200000100100,
#BPMCHANGE 84.36
#SCROLL 0.99502133712
100000000000200000000000200000000000200000000000,
#BPMCHANGE 83.35
#SCROLL 1.00707858428
100100100100200000100000200000000000200000000000,
#BPMCHANGE 84.54
#SCROLL 0.99290276792
100000100100200000100100100000100100200000200000,
#BPMCHANGE 83.6
#SCROLL 1.00406698565
100000100100200000100100100000100100200000100100,
#BPMCHANGE 84.28
#SCROLL 0.99596582819
100000000000200000000000200000000000200000000000,
#MEASURE 3/4
#BPMCHANGE 83.12
#SCROLL 1.00986525505
100100100100100000100000200000000000,
#MEASURE 4/4
#BPMCHANGE 84.28
#SCROLL 0.99596582819
100100100100200000100000200000000000100000000000,
#BPMCHANGE 84.22
#SCROLL 0.99667537402
000000500000000000000008000000000000300000000000,
#BPMCHANGE 84.09
#SCROLL 0.99821619693
100000100100200000200200100000100100200000200000,
#BPMCHANGE 83.97
#SCROLL 0.99964272954
100000100100200000200200100000100100200000100100,
100000000000200000000000200000000000200000000000,
100100100100100000100000200000000000200000000000,
#BPMCHANGE 83.94
#SCROLL 1
100000100100200000200200100000100100200000200000,
100100100100200000200200100100100100200000100100,
100000100000300000000000000000000000000000000000,
#MEASURE 3/4
100100100100100000100000200000000000,
#MEASURE 4/4
100100100100200000100000200000000000100000000000,
000000500000000000000008000000000000200200200000,
100000100100200000100000200000100100200000200000,
50000000000000000000008000000000000100010002000,
100000000000300000000000300000000000300000000000,
300000000000400000000000400000000000400000000000,
100000100100200000100000200000100100200000200000,
100000100000200000100000200000200200100100200100,
100000000000000000100100100000100000200000200000,
100000000000300000000000400000000000300000000000,
100000100100200000200100000200100100200000100100,
100000100100200000100200100100100000200000200000,
100000100100200000200100000200100100200000100100,
100000100100200000200100200200200000100000200000,
100000200200200000200000100000100100200000200000,
100000200200200000200000100000100000200000000000,
100000100100200000100100200000100000200000100000,
500000000000000000000000000000000000000008000000,
#GOGOSTART
100000100100200000200100000200100100200000200100,
100000100100200000100200100100100000200000200000,
100000100100200000200100000200100100200000200100,
100000100100200000200100200200200000100000200000,
100000200200200000200000100000100100200000200000,
100000200200200000100000400000000000000000000000,
300000000000000000000000000000000000100000100000,
200000000000000000000000000000000000300000300000,
300000000000000000000000000000000000000000000000,
#GOGOEND
#END
COURSE:Hard
LEVEL:5
SCOREINIT:760
SCOREDIFF:190
#START
100000000000100000000000100000000000100000000000,
500000800000000000000000300000000000100000100000,
200000000000100000100000200000000000000000000000,
#MEASURE 2/4
300000300000300000000000,
#MEASURE 4/4
#BPMCHANGE 83.51
#SCROLL 1.00514908394
100000100000200000200000100000100000200000000000,
#BPMCHANGE 83.99
#SCROLL 0.99940469103
100000100000200000200000100000100000200000000000,
#BPMCHANGE 84.36
#SCROLL 0.99502133712
100000000000000000000000000000000000000000000000,
#BPMCHANGE 83.35
#SCROLL 1.00707858428
100100100000100000100000200000000000200000000000,
#BPMCHANGE 84.54
#SCROLL 0.99290276792
100000100000200000200000100000100000200000000000,
#BPMCHANGE 83.6
#SCROLL 1.00406698565
100000100000200000200000100000100000200000000000,
#BPMCHANGE 84.28
#SCROLL 0.99596582819
100000000000200000000000200000000000200000000000,
#MEASURE 3/4
#BPMCHANGE 83.12
#SCROLL 1.00986525505
100100100000100000100000200000000000,
#MEASURE 4/4
#BPMCHANGE 84.28
#SCROLL 0.99596582819
100100100000200000100000200000000000100000000000,
#BPMCHANGE 84.22
#SCROLL 0.99667537402
000000500000000000000800000000000000300000000000,
#BPMCHANGE 84.09
#SCROLL 0.99821619693
100000100000200000200000100000100000200200200000,
#BPMCHANGE 83.97
#SCROLL 0.99964272954
100000100000200000200000100000100000200200200000,
100000000000200000000000200000000000200000000000,
100100100000100000100000200000000000200000000000,
#BPMCHANGE 83.94
#SCROLL 1
100000100000200000200000100000100000200200200000,
100000000000200000000000100000100000200000100100,
100000100000300000000000000000000000000000000000,
#MEASURE 3/4
100100100000100000100000200000000000,
#MEASURE 4/4
100100100000200000100000200000000000100000000000,
000000500000000000000800000000000000000000000000,
100000100100100000100000200000000000200000200000,
500000000000000000008000000000000000100010001000,
100000000000300000000000300000000000300000000000,
300000000000400000000000400000000000400000000000,
100000100100100000100000200000000000200000000000,
300000000000100000100000100000000000000000200000,
100000000000000000200000100000100000200000200000,
300000000000400000000000400000000000400000000000,
100000100100100000100000200000100000200000000000,
100000100100100000100000100000000000200000200000,
100000100100100000100000200000100000200000000000,
100000100100100000100000100000000000100000200000,
100000200200200000200000100000100000200000000000,
100000200200200000200000100000200000200000000000,
100000100100100000100100100000100000200000000000,
500000000000000000000000000800000000000000000000,
#GOGOSTART
100000100100100000100000200000100000200000200000,
100000100100100000100000100000000000200000200000,
100000100100100000100000200000100000200000100000,
100000100100100000100000100000000000100000200000,
100000200200200000200000100000100000200000000000,
100000200200200000100000200000000000000000000000,
300000000000000000000000000000000000100000100000,
200000000000000000000000000000000000300000300000,
#GOGOEND
300000000000000000000000000000000000000000000000,
#END
COURSE:Normal
LEVEL:3
SCOREINIT:910
SCOREDIFF:260
#START
100000000000100000000000100000000000100000000000,
100000000000000000000000300000000000000000000000,
000000000000000000000000000000000000000000000000,
#MEASURE 2/4
100000100000100000000000,
#MEASURE 4/4
#BPMCHANGE 83.51
#SCROLL 1.00514908394
100000000000000000000000200000000000000000000000,
#BPMCHANGE 83.99
#SCROLL 0.99940469103
100000000000000000000000200000000000000000000000,
#BPMCHANGE 84.36
#SCROLL 0.99502133712
100000000000200000000000200000000000200000000000,
#BPMCHANGE 83.35
#SCROLL 1.00707858428
100000100000100000000000200000000000200000000000,
#BPMCHANGE 84.54
#SCROLL 0.99290276792
100000000000000000000000100000000000100000000000,
#BPMCHANGE 83.6
#SCROLL 1.00406698565
100000000000000000000000100000000000100000000000,
#BPMCHANGE 84.28
#SCROLL 0.99596582819
100000000000200000000000200000000000200000000000,
#MEASURE 3/4
#BPMCHANGE 83.12
#SCROLL 1.00986525505
100000100000100000000000200000000000,
#MEASURE 4/4
#BPMCHANGE 84.28
#SCROLL 0.99596582819
100000100000100000000000200000000000100000000000,
#BPMCHANGE 84.22
#SCROLL 0.99667537402
000000500000000000000000000000800000000000000000,
#BPMCHANGE 84.09
#SCROLL 0.99821619693
100000000000000000000000100000000000100000000000,
#BPMCHANGE 83.97
#SCROLL 0.99964272954
100000000000000000000000100000000000100000000000,
100000000000200000000000200000000000200000000000,
100000100000100000000000200000000000000000000000,
#BPMCHANGE 83.94
#SCROLL 1
100000000000000000000000100000000000100000000000,
100000000000000000000000100000000000100000000000,
100000100000100000000000000000000000000000000000,
#MEASURE 3/4
100000100000100000000000200000000000,
#MEASURE 4/4
100000100000100000000000200000000000100000000000,
000000500000000000000000000000800000000000000000,
100000000000100000000000100000000000000000000000,
500000000000000000800000000000000000100000000000,
100000000000300000000000300000000000300000000000,
300000000000400000000000400000000000400000000000,
100000000000100000000000100000100000100000000000,
100000000000100000100000100000000000000000000000,
100000000000000000000000100000000000000000000000,
100000000000100000000000200000000000100000000000,
100000100000100000000000100000100000100000000000,
100000000000200000000000100000000000000000000000,
100000100000100000000000200000200000200000000000,
100000000000200000000000200000000000000000000000,
100000000000200000000000100000000000200000000000,
100000000000100000000000100000000000000000000000,
100000000000000000000000100000000000100000000000,
500000000000000000800000000000000000000000000000,
#GOGOSTART
100000100000100000000000100000100000100000000000,
100000000000200000000000100000000000000000000000,
100000100000100000000000200000200000200000000000,
100000000000200000000000200000000000000000000000,
100000000000200000000000100000000000200000000000,
100000000000100000000000200000000000000000000000,
300000000000000000000000000000000000000000000000,
400000000000000000000000000000000000300000300000,
#GOGOEND
300000000000000000000000000000000000000000000000,
#END
COURSE:Easy
LEVEL:3
SCOREINIT:920
SCOREDIFF:310
#START
100000000000000000000000100000000000000000000000,
100000000000000000000000300000000000000000000000,
000000000000000000000000000000000000000000000000,
#MEASURE 2/4
000000000000000000000000,
#MEASURE 4/4
#BPMCHANGE 83.51
#SCROLL 1.00514908394
100000000000000000000000100000000000100000000000,
#BPMCHANGE 83.99
#SCROLL 0.99940469103
100000000000000000000000100000000000100000000000,
#BPMCHANGE 84.36
#SCROLL 0.99502133712
100000000000000000000000000000000000000000000000,
#BPMCHANGE 83.35
#SCROLL 1.00707858428
100000000000100000000000100000000000000000000000,
#BPMCHANGE 84.54
#SCROLL 0.99290276792
100000000000000000000000100000000000100000000000,
#BPMCHANGE 83.6
#SCROLL 1.00406698565
100000000000000000000000100000000000100000000000,
#BPMCHANGE 84.28
#SCROLL 0.99596582819
100000000000000000000000000000000000000000000000,
#MEASURE 3/4
#BPMCHANGE 83.12
#SCROLL 1.00986525505
100000000000000000000000100000000000,
#MEASURE 4/4
#BPMCHANGE 84.28
#SCROLL 0.99596582819
100000000000000000000000100000000000500000000000,
#BPMCHANGE 84.22
#SCROLL 0.99667537402
000000000000000000000000000000800000000000000000,
#BPMCHANGE 84.09
#SCROLL 0.99821619693
100000000000000000000000200000000000200000000000,
#BPMCHANGE 83.97
#SCROLL 0.99964272954
100000000000000000000000200000000000200000000000,
100000000000000000000000200000000000000000000000,
100000000000100000000000100000000000000000000000,
#BPMCHANGE 83.94
#SCROLL 1
100000000000000000000000200000000000200000000000,
100000000000000000000000200000000000200000000000,
100000000000100000000000000000000000000000000000,
#MEASURE 3/4
100000000000000000000000100000000000,
#MEASURE 4/4
100000000000000000000000100000000000500000000000,
000000000000000000000000000000800000000000000000,
100000000000000000000000100000000000200000000000,
500000000000000000000000000000800000000000000000,
000000000000100000000000100000000000100000000000,
100000000000200000000000200000000000200000000000,
100000000000000000000000100000000000000000000000,
100000000000100000000000200000000000000000000000,
100000000000000000000000100000000000100000000000,
100000000000000000000000400000000000000000000000,
100000000000100000000000100000000000000000000000,
100000000000000000000000200000000000000000000000,
100000000000100000000000100000000000000000000000,
100000000000000000000000200000000000000000000000,
100000000000200000000000100000000000000000000000,
100000000000200000000000100000000000000000000000,
100000000000000000000000100000000000100000000000,
500000000000000000000000800000000000000000000000,
#GOGOSTART
100000000000100000000000100000000000100000000000,
100000000000000000000000200000000000000000000000,
100000000000100000000000100000000000100000000000,
100000000000000000000000200000000000000000000000,
100000000000200000000000100000000000000000000000,
100000000000200000000000100000000000000000000000,
300000000000000000000000000000000000000000000000,
400000000000000000000000000000000000300000000000,
#GOGOEND
300000000000000000000000000000000000000000000000,
#END